<?xml version="1.0" standalone="no"?>
<!DOCTYPE svg PUBLIC "-//W3C//DTD SVG 1.1//EN" "http://www.w3.org/Graphics/SVG/1.1/DTD/svg11.dtd" >
<svg xmlns="http://www.w3.org/2000/svg" xmlns:xlink="http://www.w3.org/1999/xlink" version="1.1">
<metadata></metadata>
<defs>
<font id="utm_helveregular" horiz-adv-x="1200" >
<font-face units-per-em="2048" ascent="1638" descent="-410" />
<missing-glyph horiz-adv-x="602" />
<glyph horiz-adv-x="0" />
<glyph unicode="&#xd;" horiz-adv-x="571" />
<glyph unicode=" "  horiz-adv-x="602" />
<glyph unicode="&#x09;" horiz-adv-x="602" />
<glyph unicode="&#xa0;" horiz-adv-x="602" />
<glyph unicode="!" horiz-adv-x="602" d="M184 0v209h201v-209h-201zM184 987v483h201v-483l-49 -635h-103z" />
<glyph unicode="&#x22;" horiz-adv-x="786" d="M143 950v520h152v-520h-152zM434 950v520h151v-520h-151z" />
<glyph unicode="#" d="M57 430l20 131h209l41 291h-213l21 127h209l61 430h135l-57 -430h254l57 430h140l-62 -430h213l-20 -127h-209l-41 -291h209l-17 -131h-213l-57 -430h-135l57 430h-254l-61 -430h-135l61 430h-213zM422 561h258l36 291h-253z" />
<glyph unicode="$" d="M65 438h180q0 -164 59.5 -233.5t215.5 -93.5v544q-256 62 -346 162q-80 90 -80 240q0 166 121.5 283.5t304.5 117.5v131h94v-131q160 -14 258 -76q160 -98 160 -313h-176q-11 96 -54 148q-57 67 -188 90v-488q194 -57 266 -92q184 -92 184 -326q0 -233 -161 -352 q-123 -90 -289 -90v-197h-94v197q-207 0 -322 104q-133 123 -133 375zM274 1069q0 -98 76 -160q65 -51 170 -69v467q-115 0 -180.5 -68t-65.5 -170zM614 111q131 0 205 79q65 70 65 179q0 84 -45 145t-115 84l-110 33v-520z" />
<glyph unicode="%" horiz-adv-x="1912" d="M81 1077q0 148 100.5 248t247.5 100q146 0 247 -101t101 -247q0 -145 -101 -246.5t-247 -101.5q-143 0 -245.5 100.5t-102.5 247.5zM224 1077q0 -92 58.5 -148.5t146.5 -56.5q90 0 147.5 59.5t57.5 145.5t-59.5 145.5t-145.5 59.5t-145.5 -59.5t-59.5 -145.5zM450 -41 l807 1483h114l-811 -1483h-110zM1044 336q0 147 100 247.5t248 100.5q145 0 246.5 -101.5t101.5 -246.5q0 -146 -101.5 -249t-246.5 -103q-144 0 -246 102t-102 250zM1187 336q0 -92 58.5 -148.5t146.5 -56.5q90 0 147.5 59.5t57.5 145.5t-59.5 145.5t-145.5 59.5 t-145.5 -59.5t-59.5 -145.5z" />
<glyph unicode="&#x26;" horiz-adv-x="1454" d="M90 356q0 156 66.5 252.5t265.5 210.5q-86 107 -117 164q-39 74 -39 160q0 137 88 227q98 100 260 100q164 0 254 -96q78 -82 78 -207q0 -137 -90 -241q-51 -60 -176 -144l270 -319q25 67 35 108t23 121h172q0 -74 -31 -169t-88 -204l262 -319h-234l-139 168 q-84 -98 -170 -143q-108 -58 -256 -58q-239 0 -354 152q-80 106 -80 237zM270 369q0 -123 103 -191q77 -51 163 -51q201 0 320 164l-332 405q-141 -90 -186 -141q-68 -76 -68 -186zM442 1155q0 -61 51 -141q37 -58 93 -113q86 57 120 98q64 72 64 156q0 88 -55 129 q-41 31 -101 31q-98 0 -143 -62q-29 -41 -29 -98z" />
<glyph unicode="'" horiz-adv-x="417" d="M122 950v520h147v-520h-147z" />
<glyph unicode="(" horiz-adv-x="737" d="M139 537q0 260 90 499q82 215 258 467h123q-104 -196 -147 -299q-70 -162 -100.5 -318.5t-30.5 -398.5q0 -159 35.5 -308.5t99.5 -299.5q39 -90 147 -305h-123q-182 272 -256 457q-96 239 -96 506z" />
<glyph unicode=")" horiz-adv-x="737" d="M69 1503h123q123 -184 186 -305q80 -151 123 -312t43 -341q0 -262 -90 -502q-82 -217 -258 -469h-123q100 190 148 301q69 162 100 319.5t31 399.5q0 160 -35 307.5t-101 296.5q-38 92 -147 305z" />
<glyph unicode="*" horiz-adv-x="856" d="M81 1212l41 111l213 -78v225h123v-225l217 78l41 -111l-221 -69l135 -189l-98 -69l-136 192l-131 -192l-102 69l139 189z" />
<glyph unicode="+" horiz-adv-x="1269" d="M81 442v152h442v442h152v-442h442v-152h-442v-442h-152v442h-442z" />
<glyph unicode="," horiz-adv-x="602" d="M180 0v217h213v-201q0 -178 -90 -260q-49 -45 -123 -59v94q59 6 86 70q20 49 20 139h-106z" />
<glyph unicode="-" horiz-adv-x="737" d="M90 475v184h504v-184h-504z" />
<glyph unicode="." horiz-adv-x="602" d="M180 0v217h213v-217h-213z" />
<glyph unicode="/" horiz-adv-x="602" d="M-36 -41l508 1552h135l-504 -1552h-139z" />
<glyph unicode="0" d="M77 700q0 293 90 482q125 260 402 260q276 0 403 -258q92 -189 92 -484q0 -290 -92 -481q-127 -260 -403 -260q-277 0 -402 258q-90 186 -90 483zM270 700q0 -278 73.5 -427.5t225.5 -149.5q151 0 227 150.5t76 426.5q0 281 -74 429.5t-229 148.5q-150 0 -224.5 -151.5 t-74.5 -426.5z" />
<glyph unicode="1" d="M208 1024v143q184 0 258 47q86 56 127 228h143v-1442h-192v1024h-336z" />
<glyph unicode="2" d="M53 0q0 211 96 356q78 119 244 217l188 111q144 80 191 129q76 80 76 207q0 100 -64 172q-78 86 -223 86q-137 0 -211 -84q-80 -92 -80 -268h-180q0 305 190 432q125 84 310 84q192 0 321 -117t129 -313q0 -174 -113 -295q-77 -84 -272 -189l-151 -82q-127 -69 -193 -157 q-45 -62 -53 -117h782v-172h-987z" />
<glyph unicode="3" d="M69 442h188q0 -133 52 -209q75 -110 256 -110q139 0 225 78t86 200q0 160 -121 224q-80 43 -215 43l-82 -4v155l94 -4q117 0 189 51q86 62 86 187q0 84 -51 143q-72 82 -215 82q-166 0 -234 -117q-45 -76 -45 -190h-176q0 192 90 313q119 158 373 158q207 0 326.5 -105.5 t119.5 -275.5q0 -125 -61 -207q-49 -66 -123 -88q112 -39 170 -115q67 -88 67 -225q0 -195 -120 -322q-140 -145 -396 -145q-75 0 -141 16.5t-125 49.5q-113 59 -165 170.5t-52 246.5z" />
<glyph unicode="4" d="M53 352v176l659 914h148v-934h213v-156h-213v-352h-180v352h-627zM217 508h463v651z" />
<glyph unicode="5" d="M65 360h188q13 -122 93.5 -181.5t210.5 -59.5q137 0 220 94t83 233q0 152 -90.5 236t-229.5 84q-158 0 -266 -135l-156 8l111 770h745v-176h-610l-61 -393q53 39 112 61q76 29 166 29q189 0 324 -119q147 -129 147 -344q0 -182 -90 -313q-135 -195 -430 -195 q-174 0 -289 78q-153 102 -178 323z" />
<glyph unicode="6" d="M77 672q0 299 104 502q140 268 428 268q156 0 273 -82q149 -105 149 -303h-176q-20 102 -76 157q-63 64 -174 64q-184 0 -276 -209q-64 -145 -64 -324l5 -4q40 72 112 117q94 60 227 60q166 0 291 -99q160 -125 160 -356q0 -111 -31.5 -197t-101.5 -161.5t-137 -106.5 q-86 -39 -230 -39q-98 0 -188 45q-113 55 -184 168q-62 96 -86.5 218t-24.5 282zM290 442q0 -127 72 -217q82 -102 231 -102q127 0 205 92t78 240q0 116 -62 198q-78 105 -229 105q-146 0 -220.5 -88t-74.5 -228z" />
<glyph unicode="7" d="M77 1233v176h995v-156q-92 -98 -192 -247q-137 -205 -232 -428q-120 -285 -170 -578h-196q37 293 207 645q163 336 379 588h-791z" />
<glyph unicode="8" d="M77 414q0 129 63.5 217t182.5 135q-197 72 -197 278q0 146 90 254q119 144 348 144q220 0 340 -123q103 -105 103 -250q0 -133 -68 -215q-41 -51 -117 -88q134 -55 193 -164q45 -82 45 -184q0 -193 -115 -318q-131 -141 -372 -141q-86 0 -162 21q-107 28 -187 94 q-96 73 -129 186q-18 62 -18 154zM270 410q0 -111 59 -187q80 -100 248 -100q123 0 194 51q97 70 97 223q0 138 -84 208.5t-215 70.5q-144 0 -226 -82q-73 -74 -73 -184zM315 1053q0 -99 73.5 -160.5t175.5 -61.5q115 0 186.5 68t71.5 166q0 80 -55 137q-74 76 -215 76 q-129 0 -190 -76q-47 -59 -47 -149z" />
<glyph unicode="9" d="M86 946q0 209 117 346q127 150 346 150q301 0 424 -246q80 -160 80 -422q0 -145 -25 -280q-41 -228 -139 -359q-131 -176 -357 -176q-227 0 -342 141q-88 109 -88 248h181q0 -110 67.5 -173.5t177.5 -63.5q148 0 229 128t115 412l-4 4q-39 -80 -131 -126t-196 -46 q-203 0 -329 124t-126 339zM274 954q0 -182 101 -258q69 -53 190 -53q103 0 174 57q105 84 105 271q0 135 -68 215q-78 92 -223 92q-127 0 -203 -88t-76 -236z" />
<glyph unicode=":" horiz-adv-x="602" d="M180 0v217h213v-217h-213zM180 840v217h213v-217h-213z" />
<glyph unicode=";" horiz-adv-x="602" d="M180 0v217h213v-201q0 -178 -90 -260q-49 -45 -123 -59v94q59 6 86 70q20 49 20 139h-106zM180 840v217h213v-217h-213z" />
<glyph unicode="&#x3c;" horiz-adv-x="1269" d="M98 446v144l999 426v-164l-798 -332l798 -332v-163z" />
<glyph unicode="=" horiz-adv-x="1269" d="M81 238v147h1036v-147h-1036zM81 651v148h1036v-148h-1036z" />
<glyph unicode="&#x3e;" horiz-adv-x="1269" d="M98 25v163l799 332l-799 332v164l999 -426v-144z" />
<glyph unicode="?" d="M114 1012q0 166 43 250q37 71 121 135q125 94 295 94q182 0 303 -102q131 -111 131 -299q0 -99 -43 -170q-35 -60 -150 -170q-84 -82 -108 -113q-72 -92 -72 -240l4 -20h-180q0 196 68 297q26 41 120.5 138t114.5 122q53 67 53 168q0 84 -49 147q-67 86 -196 86 q-133 0 -204 -80.5t-71 -242.5h-180zM454 0v209h197v-209h-197z" />
<glyph unicode="@" horiz-adv-x="1509" d="M327 741q0 320 225.5 545t544.5 225q293 0 499 -181t206 -458q0 -256 -177 -436q-153 -157 -311 -157q-57 0 -94 32.5t-37 98.5l-4 -4q-53 -54 -111 -87q-71 -40 -135 -40q-131 0 -217 96t-86 231q0 221 129 387q139 178 346 178q76 0 135.5 -38.5t98.5 -120.5l41 127 h139q-35 -125 -121 -420q-63 -215 -63 -248q0 -57 45 -57q104 0 197 139t93 303q0 240 -165.5 384t-407.5 144q-270 0 -446.5 -190t-176.5 -465q0 -272 183.5 -455.5t455.5 -183.5q144 0 276 62.5t220 171.5h139q-102 -170 -272 -267.5t-367 -97.5q-329 0 -555.5 226.5 t-226.5 555.5zM798 627q0 -90 47 -145.5t125 -55.5q123 0 219 143q88 131 88 267q0 77 -49 132.5t-119 55.5q-131 0 -225 -135q-86 -123 -86 -262z" />
<glyph unicode="A" horiz-adv-x="1454" d="M28 0l553 1470h225l533 -1470h-217l-144 430h-590l-155 -430h-205zM450 606h455l-218 647z" />
<glyph unicode="B" horiz-adv-x="1454" d="M151 0v1470h647q197 0 311 -108q107 -100 107 -260q0 -92 -37 -162q-49 -94 -160 -145q117 -52 168 -101q99 -96 99 -260q0 -186 -127 -305q-138 -129 -373 -129h-635zM352 172h422q153 0 232 70.5t79 195.5q0 142 -111 203q-84 47 -233 47h-389v-516zM352 848h356 q152 0 225 51q82 57 82 186q0 109 -67 160q-76 58 -236 58h-360v-455z" />
<glyph unicode="C" horiz-adv-x="1568" d="M90 745q0 342 185.5 554t502.5 212q266 0 432 -149q146 -131 170 -334h-192q-35 172 -172 250q-101 57 -238 57q-211 0 -342 -145q-141 -158 -141 -440q0 -281 106 -435q123 -176 381 -176q133 0 234 72q141 102 188 330h193q-41 -279 -212 -430.5t-431 -151.5 q-279 0 -457 180q-207 211 -207 606z" />
<glyph unicode="D" horiz-adv-x="1568" d="M167 0v1470h594q285 0 451.5 -195.5t166.5 -516.5q0 -301 -131 -502q-166 -256 -495 -256h-586zM364 172h385q196 0 311 148.5t115 424.5q0 273 -116 415.5t-323 142.5h-372v-1131z" />
<glyph unicode="E" horiz-adv-x="1454" d="M176 0v1470h1073v-176h-872v-450h803v-176h-803v-492h884v-176h-1085z" />
<glyph unicode="F" horiz-adv-x="1314" d="M176 0v1470h1020v-176h-819v-450h721v-176h-721v-668h-201z" />
<glyph unicode="G" horiz-adv-x="1683" d="M98 750q0 299 168 514q192 247 528 247q228 0 400 -118q194 -133 223 -369h-193q-41 174 -182 252q-106 59 -256 59q-209 0 -342 -153q-141 -164 -141 -445q0 -264 98 -415q123 -191 393 -191q78 0 138 14q90 23 161 80q92 72 131 174q33 88 33 219h-459v168h643v-786 h-126l-50 193q-73 -105 -204.5 -169.5t-278.5 -64.5q-172 0 -293 55q-84 39 -158 113q-147 139 -200 332q-33 119 -33 291z" />
<glyph unicode="H" horiz-adv-x="1568" d="M159 0v1470h197v-606h770v606h196v-1470h-196v688h-770v-688h-197z" />
<glyph unicode="I" horiz-adv-x="602" d="M188 0v1470h197v-1470h-197z" />
<glyph unicode="J" horiz-adv-x="1085" d="M36 328v147h184v-102q0 -127 57.5 -184.5t164.5 -57.5q131 0 188 72q49 61 49 182v1085h197v-1073q0 -235 -138 -348q-108 -90 -284 -90q-230 0 -338 133q-80 98 -80 236z" />
<glyph unicode="K" horiz-adv-x="1454" d="M155 0v1470h201v-712l712 712h275l-615 -593l631 -877h-258l-516 737l-229 -221v-516h-201z" />
<glyph unicode="L" d="M155 0v1470h201v-1294h745v-176h-946z" />
<glyph unicode="M" horiz-adv-x="1798" d="M151 0v1470h283l422 -1241l421 1241h283v-1470h-192v1237l-414 -1237h-197l-413 1233v-1233h-193z" />
<glyph unicode="N" horiz-adv-x="1568" d="M155 0v1470h238l733 -1187l4 1187h192v-1470h-221l-749 1188l-4 -1188h-193z" />
<glyph unicode="O" horiz-adv-x="1572" d="M94 737q0 293 152 504q194 270 565 270q370 0 563 -268q154 -213 154 -506q0 -297 -152 -508q-192 -270 -565 -270q-371 0 -563 268q-154 215 -154 510zM299 737q0 -266 137 -432t375 -166q235 0 373.5 167t138.5 431t-135 428q-142 170 -377 170q-234 0 -373 -168 t-139 -430z" />
<glyph unicode="P" horiz-adv-x="1454" d="M176 0v1470h664q198 0 316 -115.5t118 -297.5q0 -176 -97 -293q-116 -141 -337 -141h-463v-623h-201zM377 791h393q145 0 217 57q82 65 82 209q0 131 -84 192q-72 54 -207 54h-401v-512z" />
<glyph unicode="Q" horiz-adv-x="1683" d="M81 737q0 293 152 504q194 270 565 270q370 0 563 -268q154 -213 154 -506q0 -157 -48 -299q-55 -166 -165 -278l200 -156l-102 -119l-225 176q-148 -102 -377 -102q-371 0 -563 268q-154 215 -154 510zM286 737q0 -266 137 -432t375 -166q121 0 217 45l-156 119l103 123 l184 -143q78 75 121 195t43 259q0 264 -135 428q-142 170 -377 170q-234 0 -373 -168t-139 -430z" />
<glyph unicode="R" horiz-adv-x="1568" d="M180 0v1470h680q209 0 332 -79q151 -99 151 -314q0 -147 -65 -237q-43 -62 -140 -115q89 -39 121 -76q56 -65 56 -203l12 -266q0 -63 13.5 -91t60.5 -56v-33h-242q-18 55 -27.5 178t-9.5 191q0 151 -74 211q-63 51 -188 51h-479v-631h-201zM381 803h458q136 0 205 45 q94 61 94 209q0 147 -94 207q-61 39 -168 39h-495v-500z" />
<glyph unicode="S" horiz-adv-x="1454" d="M102 475h184q0 -182 131 -272q105 -72 275 -72q196 0 299 76q86 63 86 174q0 113 -62.5 163t-248.5 95l-304 70q-120 30 -190 86q-121 94 -121 262q0 190 117 313q135 141 387 141q338 0 479 -174q94 -116 94 -297h-184q0 158 -121 236q-98 63 -243 63q-136 0 -216 -43 q-120 -63 -120 -215q0 -84 53 -131q39 -35 119 -53l422 -98q153 -37 235 -125q96 -103 96 -268q0 -238 -192 -355q-152 -92 -381 -92q-182 0 -301 49q-72 29 -146 94q-84 78 -115.5 169t-31.5 204z" />
<glyph unicode="T" horiz-adv-x="1314" d="M28 1294v176h1196v-176h-500v-1294h-196v1294h-500z" />
<glyph unicode="U" horiz-adv-x="1478" d="M151 492v978h197v-925q0 -219 118 -322q97 -84 254 -84q166 0 265 80q124 103 124 322v929h197v-954q0 -242 -143 -391q-158 -166 -447 -166q-280 0 -432 162q-133 143 -133 371z" />
<glyph unicode="V" horiz-adv-x="1454" d="M40 1470h221l422 -1253l418 1253h225l-536 -1470h-213z" />
<glyph unicode="W" horiz-adv-x="2027" d="M32 1470h217l275 -1196l331 1196h217l332 -1196l279 1196h217l-385 -1470h-209l-336 1221l-344 -1221h-209z" />
<glyph unicode="X" horiz-adv-x="1454" d="M40 0l524 754l-491 716h250l372 -561l373 561h238l-496 -716l516 -754h-246l-393 606l-409 -606h-238z" />
<glyph unicode="Y" horiz-adv-x="1454" d="M28 1470h233l422 -704l422 704h234l-557 -876v-594h-197v594z" />
<glyph unicode="Z" horiz-adv-x="1314" d="M49 0v168l901 1126h-835v176h1089v-172l-905 -1122h905v-176h-1155z" />
<glyph unicode="[" horiz-adv-x="602" d="M131 -401v1880h381v-144h-221v-1593h221v-143h-381z" />
<glyph unicode="\" horiz-adv-x="602" d="M-4 1511h139l504 -1552h-139z" />
<glyph unicode="]" horiz-adv-x="602" d="M57 -258h221v1593h-221v144h385v-1880h-385v143z" />
<glyph unicode="^" horiz-adv-x="1015" d="M-28 541l438 868h148l434 -868h-160l-348 704l-352 -704h-160z" />
<glyph unicode="_" d="M0 -156h1139v-102h-1139v102z" />
<glyph unicode="`" horiz-adv-x="737" d="M28 1503h221l185 -286h-140z" />
<glyph unicode="a" horiz-adv-x="1175" d="M73 279q0 108 51 186q82 125 277 149l295 37q43 4 63 25q31 31 31 102q0 176 -250 176q-133 0 -195 -73q-36 -45 -51 -136h-168q0 185 123 275q113 82 320 82q131 0 229 -45q168 -76 168 -254v-615q0 -65 61 -65l58 8v-131q-23 -6 -48.5 -13t-50.5 -7q-108 0 -153 51 q-35 39 -35 112q-72 -75 -141 -114q-111 -62 -248 -62q-148 0 -242 86t-94 226zM261 307q0 -92 46.5 -140t146.5 -48q131 0 231.5 73.5t100.5 180.5v176q-23 -21 -80.5 -35t-199.5 -32.5t-193.5 -61.5t-51.5 -113z" />
<glyph unicode="b" d="M118 0v1470h180v-532q121 164 316 164q206 0 329 -154q117 -145 117 -379q0 -235 -98 -397q-125 -205 -373 -205q-123 0 -203 60q-49 36 -92 108l-4 -135h-172zM290 487q0 -190 104 -286q80 -74 191 -74q143 0 215 112.5t72 301.5q0 159 -41 250q-70 151 -250 151 q-174 0 -244 -162q-47 -108 -47 -293z" />
<glyph unicode="c" horiz-adv-x="1085" d="M61 508q0 266 123 422q135 172 393 172q193 0 299 -125q88 -103 103 -264h-177q-16 108 -79.5 168.5t-174.5 60.5q-151 0 -229 -129q-65 -111 -65 -276q0 -175 53 -275q71 -135 241 -135q91 0 162.5 67.5t91.5 186.5h177q-19 -162 -109 -270q-119 -144 -330 -144 q-221 0 -350 150.5t-129 390.5z" />
<glyph unicode="d" d="M73 569q0 234 118 383.5t328 149.5q127 0 216 -66q45 -32 104 -114l4 12v536h180v-1470h-172v147q-55 -98 -145 -143q-72 -37 -162 -37q-248 0 -373 203q-98 160 -98 399zM257 541q0 -185 75 -299.5t216 -114.5q111 0 189 72q102 94 102 288q0 185 -45 291 q-70 164 -242 164q-182 0 -252 -149q-43 -93 -43 -252z" />
<glyph unicode="e" d="M81 508q0 266 123 422q135 172 393 172q225 0 342 -167t117 -456h-782q0 -170 78.5 -261t232.5 -91q119 0 201 74q69 63 77 135h181q-11 -62 -48 -129q-55 -103 -145 -162q-55 -37 -98 -51q-78 -27 -193 -27q-221 0 -350 150.5t-129 390.5zM274 623h598q0 137 -68 221 q-78 98 -231 98q-123 0 -211 -96t-88 -223z" />
<glyph unicode="f" horiz-adv-x="602" d="M28 922v151h147v184q0 234 279 234h37.5t44.5 -4v-160l-74 4q-106 0 -106 -127v-131h180v-151h-180v-922h-181v922h-147z" />
<glyph unicode="g" d="M81 569q0 232 120 382.5t326 150.5q129 0 218 -66q51 -39 102 -114l4 151h172v-983q0 -211 -63 -328q-115 -213 -437 -213q-141 0 -237 52q-148 80 -172 268h180q16 -84 78.5 -128t163.5 -44q196 0 266 135q41 80 41 234v57l-4 -8q-41 -66 -107 -103q-78 -45 -180 -45 q-248 0 -373 203q-98 160 -98 399zM269 541q0 -187 73 -300.5t214 -113.5q113 0 191 72q104 96 104 288q0 183 -47 291q-72 164 -244 164q-182 0 -250 -149q-41 -91 -41 -252z" />
<glyph unicode="h" d="M135 0v1470h180v-540q62 76 113 110q90 62 203 62q157 0 252 -70q124 -92 124 -303v-729h-180v700q0 123 -41 177q-49 65 -172 65q-127 0 -205 -76q-94 -92 -94 -280v-586h-180z" />
<glyph unicode="i" horiz-adv-x="487" d="M139 0v1073h180v-1073h-180zM139 1266v204h180v-204h-180z" />
<glyph unicode="j" horiz-adv-x="487" d="M-32 -270h37q82 0 108.5 22.5t26.5 108.5v1212h180v-1233q0 -108 -37 -168q-63 -102 -237 -102h-29h-24q-17 4 -25 4v156zM140 1266v204h180v-204h-180z" />
<glyph unicode="k" horiz-adv-x="1085" d="M139 0v1470h172v-852l463 455h229l-409 -401l434 -672h-234l-331 541l-152 -135v-406h-172z" />
<glyph unicode="l" horiz-adv-x="487" d="M139 0v1470h180v-1470h-180z" />
<glyph unicode="m" horiz-adv-x="1798" d="M135 0v1073h168v-151q57 73 108 110q97 70 220 70q96 0 163.5 -38t122.5 -134q82 90 136 123q79 49 192 49q123 0 209 -66q123 -94 123 -295v-741h-180v692q0 121 -41 180q-50 70 -160 70q-111 0 -180.5 -85t-69.5 -202v-655h-180v741q0 80 -35 133q-45 68 -133 68 q-105 0 -178 -68q-105 -94 -105 -288v-586h-180z" />
<glyph unicode="n" d="M135 0v1073h168v-151q57 71 111 110q98 70 217 70q157 0 252 -70q124 -92 124 -303v-729h-180v659q0 148 -47 211q-53 72 -182 72q-105 0 -178 -68q-105 -94 -105 -288v-586h-180z" />
<glyph unicode="o" horiz-adv-x="1179" d="M73 537q0 231 119 387q135 178 377 178q241 0 378 -178q121 -158 121 -387q0 -228 -121 -385q-137 -181 -378 -181q-240 0 -375 179q-121 157 -121 387zM257 537q0 -152 58 -258q82 -152 254 -152q170 0 252 149q59 109 59 261q0 151 -57 258q-82 151 -254 151 q-170 0 -252 -149q-60 -109 -60 -260z" />
<glyph unicode="p" d="M118 -426v1499h172v-151q57 77 104 112q93 68 220 68q206 0 329 -154q117 -145 117 -379q0 -235 -98 -397q-125 -205 -373 -205q-102 0 -173 40t-114 108l-4 -541h-180zM290 487q0 -190 104 -286q80 -74 191 -74q143 0 215 112.5t72 301.5q0 159 -41 250 q-70 151 -250 151q-174 0 -244 -162q-47 -108 -47 -293z" />
<glyph unicode="q" d="M73 569q0 234 118 383.5t328 149.5q127 0 216 -66q45 -32 104 -114l4 151h168v-1499h-180v541q-41 -66 -107 -103q-78 -45 -180 -45q-248 0 -373 203q-98 160 -98 399zM257 541q0 -185 75 -299.5t216 -114.5q111 0 189 72q102 94 102 288q0 185 -45 291q-70 164 -242 164 q-182 0 -252 -149q-43 -93 -43 -252z" />
<glyph unicode="r" horiz-adv-x="737" d="M159 0v1073h168v-180q61 100 131 151q78 58 176 58q33 0 45 -4v-189h-65q-123 0 -199 -82t-76 -204v-623h-180z" />
<glyph unicode="s" horiz-adv-x="1085" d="M65 344h176q0 -117 80 -170q72 -47 203 -47q106 0 172 39q74 45 74 129q0 61 -44.5 92t-168.5 64l-209 49q-119 30 -179 88q-67 65 -67 174q0 166 123 258q108 82 282 82q191 0 300.5 -94.5t109.5 -241.5h-176q0 72 -41 115q-64 65 -213 65q-98 0 -155.5 -42t-57.5 -109 q0 -62 45 -90q35 -23 152 -54l180 -45q164 -39 231.5 -104.5t67.5 -177.5q0 -164 -118 -260.5t-304 -96.5q-281 0 -391 139q-72 91 -72 238z" />
<glyph unicode="t" horiz-adv-x="602" d="M28 922v151h147v299h181v-299h172v-151h-172v-697q0 -53 39 -71q22 -11 67 -11h66v-143l-135 -16q-125 0 -177 67q-41 53 -41 166v705h-147z" />
<glyph unicode="u" d="M139 303v770h180v-713q0 -124 60 -182q51 -51 149 -51q154 0 232 119q63 96 63 237v590h180v-1073h-172v156l-4 4q-57 -97 -137 -145t-203 -48q-139 0 -231 70q-117 88 -117 266z" />
<glyph unicode="v" horiz-adv-x="1085" d="M16 1073h209l278 -872l308 872h196l-405 -1073h-193z" />
<glyph unicode="w" horiz-adv-x="1568" d="M28 1073h197l204 -844l213 844h201l209 -844l221 844h180l-311 -1073h-188l-217 831l-213 -831h-185z" />
<glyph unicode="x" horiz-adv-x="1085" d="M24 0l377 553l-361 520h234l246 -377l249 377h222l-365 -520l377 -553h-229l-267 406l-258 -406h-225z" />
<glyph unicode="y" horiz-adv-x="1085" d="M24 1073h205l282 -872l291 872h201q-94 -264 -187.5 -522t-197.5 -531q-129 -325 -189.5 -391.5t-232.5 -66.5q-16 0 -27 2q-30 10 -47 14v164q17 -6 46.5 -13.5t60.5 -7.5q67 0 96 39t96 211z" />
<glyph unicode="z" horiz-adv-x="1085" d="M65 0v143l643 779h-594v151h828v-147l-639 -774h659v-152h-897z" />
<glyph unicode="{" horiz-adv-x="737" d="M86 479v123q70 0 119 75t49 187v353q0 120 61.5 191t147.5 71h135v-131h-90q-49 0 -71.5 -45.5t-22.5 -122.5v-349q0 -131 -74 -215q-53 -61 -107 -71q39 -15 74 -45q107 -90 107 -254v-348q0 -74 22.5 -121t71.5 -47h90v-131h-135q-84 0 -144 67q-65 74 -65 195v352 q0 117 -48 191.5t-120 74.5z" />
<glyph unicode="|" horiz-adv-x="577" d="M192 -41v1552h152v-1552h-152z" />
<glyph unicode="}" horiz-adv-x="737" d="M86 -270h90q51 0 72.5 46t21.5 122v348q0 139 74 223q47 53 107 72q-35 10 -74 43q-107 90 -107 247v349q0 77 -18 116q-25 52 -76 52h-90v131h139q84 0 146.5 -71t62.5 -191v-353q0 -116 45 -189t119 -73v-123q-72 0 -118 -74.5t-46 -191.5v-352q0 -121 -62.5 -191.5 t-146.5 -70.5h-139v131z" />
<glyph unicode="~" horiz-adv-x="1269" d="M126 483q41 80 92 121q68 55 162 55q49 0 106.5 -17t122.5 -48q78 -33 131.5 -53.5t77.5 -20.5q53 0 103 47q22 23 77 101l74 -115q-51 -80 -115.5 -128t-142.5 -48q-39 0 -83 13t-126 56q-61 35 -104 50q-60 20 -129 20q-62 0 -107 -45q-37 -37 -65 -102z" />
<glyph unicode="&#xa8;" horiz-adv-x="1024" />
<glyph unicode="&#xa9;" horiz-adv-x="1642" d="M20 737q0 330 230.5 552t555.5 222q322 0 552.5 -222t230.5 -552q0 -331 -229.5 -554.5t-553.5 -223.5q-323 0 -554.5 223.5t-231.5 554.5zM176 737q0 -278 182 -462.5t448 -184.5q267 0 447 184.5t180 462.5q0 275 -180 459t-447 184q-266 0 -448 -184t-182 -459z M376 741q0 205 123 338t328 133q154 0 259 -81.5t126 -237.5h-135q-19 84 -85.5 134t-164.5 50q-141 0 -218 -92t-77 -244q0 -145 82 -244.5t221 -99.5q92 0 158.5 55.5t83.5 141.5h139q-31 -152 -135.5 -242t-245.5 -90q-207 0 -333 136.5t-126 342.5z" />
<glyph unicode="&#xad;" horiz-adv-x="737" d="M90 475v184h504v-184h-504z" />
<glyph unicode="&#xae;" horiz-adv-x="1642" d="M20 737q0 330 230.5 552t555.5 222q322 0 552.5 -222t230.5 -552q0 -331 -229.5 -554.5t-553.5 -223.5q-323 0 -554.5 223.5t-231.5 554.5zM176 737q0 -278 182 -462.5t448 -184.5q267 0 447 184.5t180 462.5q0 275 -180 459t-447 184q-266 0 -448 -184t-182 -459z M507 291v893h340q162 0 239 -60.5t77 -193.5q0 -113 -62.5 -173.5t-167.5 -72.5l254 -393h-151l-238 385h-155v-385h-136zM643 791h163q138 0 178 35.5t40 111.5t-54.5 103.5t-142.5 27.5h-184v-278z" />
<glyph unicode="&#xb4;" horiz-adv-x="1024" />
<glyph unicode="&#xc0;" horiz-adv-x="1454" d="M28 0l553 1470h225l533 -1470h-217l-144 430h-590l-155 -430h-205zM347 1905h222l180 -291h-135zM450 606h455l-218 647z" />
<glyph unicode="&#xc1;" horiz-adv-x="1454" d="M28 0l553 1470h225l533 -1470h-217l-144 430h-590l-155 -430h-205zM450 606h455l-218 647zM628 1614l181 291h221l-266 -291h-136z" />
<glyph unicode="&#xc2;" horiz-adv-x="1454" d="M28 0l553 1470h225l533 -1470h-217l-144 430h-590l-155 -430h-205zM384 1618l205 291h189l204 -291h-163l-136 192l-135 -192h-164zM450 606h455l-218 647z" />
<glyph unicode="&#xc3;" horiz-adv-x="1454" d="M28 0l553 1470h225l533 -1470h-217l-144 430h-590l-155 -430h-205zM358 1642q14 101 59 154q53 64 154 64q35 0 68.5 -7.5t70.5 -21.5l45 -21q25 -10 53.5 -17t40.5 -7q53 0 78 31q16 20 25 63h102q-10 -96 -64.5 -160.5t-140.5 -64.5q-45 0 -119 28l-53 17 q-98 33 -127 33q-39 0 -59.5 -21.5t-34.5 -69.5h-98zM450 606h455l-218 647z" />
<glyph unicode="&#xc8;" horiz-adv-x="1454" d="M176 0v1470h1073v-176h-872v-450h803v-176h-803v-492h884v-176h-1085zM429 1905h221l180 -291h-135z" />
<glyph unicode="&#xc9;" horiz-adv-x="1454" d="M176 0v1470h1073v-176h-872v-450h803v-176h-803v-492h884v-176h-1085zM619 1614l180 291h221l-266 -291h-135z" />
<glyph unicode="&#xca;" horiz-adv-x="1454" d="M176 0v1470h1073v-176h-872v-450h803v-176h-803v-492h884v-176h-1085zM420 1618l205 291h188l205 -291h-164l-135 192l-135 -192h-164z" />
<glyph unicode="&#xcc;" horiz-adv-x="602" d="M-13 1905h221l180 -291h-135zM188 0v1470h197v-1470h-197z" />
<glyph unicode="&#xcd;" horiz-adv-x="602" d="M188 0v1470h197v-1470h-197zM188 1614l180 291h221l-266 -291h-135z" />
<glyph unicode="&#xd2;" horiz-adv-x="1572" d="M94 737q0 293 152 504q194 270 565 270q370 0 563 -268q154 -213 154 -506q0 -297 -152 -508q-192 -270 -565 -270q-371 0 -563 268q-154 215 -154 510zM299 737q0 -266 137 -432t375 -166q235 0 373.5 167t138.5 431t-135 428q-142 170 -377 170q-234 0 -373 -168 t-139 -430zM519 1905h221l180 -291h-135z" />
<glyph unicode="&#xd3;" horiz-adv-x="1572" d="M94 737q0 293 152 504q194 270 565 270q370 0 563 -268q154 -213 154 -506q0 -297 -152 -508q-192 -270 -565 -270q-371 0 -563 268q-154 215 -154 510zM299 737q0 -266 137 -432t375 -166q235 0 373.5 167t138.5 431t-135 428q-142 170 -377 170q-234 0 -373 -168 t-139 -430zM660 1614l180 291h221l-266 -291h-135z" />
<glyph unicode="&#xd4;" horiz-adv-x="1572" d="M94 737q0 293 152 504q194 270 565 270q370 0 563 -268q154 -213 154 -506q0 -297 -152 -508q-192 -270 -565 -270q-371 0 -563 268q-154 215 -154 510zM299 737q0 -266 137 -432t375 -166q235 0 373.5 167t138.5 431t-135 428q-142 170 -377 170q-234 0 -373 -168 t-139 -430zM512 1618l205 291h188l205 -291h-164l-135 192l-135 -192h-164z" />
<glyph unicode="&#xd5;" horiz-adv-x="1572" d="M94 737q0 293 152 504q194 270 565 270q370 0 563 -268q154 -213 154 -506q0 -297 -152 -508q-192 -270 -565 -270q-371 0 -563 268q-154 215 -154 510zM299 737q0 -266 137 -432t375 -166q235 0 373.5 167t138.5 431t-135 428q-142 170 -377 170q-234 0 -373 -168 t-139 -430zM463 1642q14 101 59 154q53 64 154 64q34 0 68 -7.5t71 -21.5l45 -21q25 -10 53.5 -17t40.5 -7q53 0 78 31q16 20 25 63h102q-10 -96 -64.5 -160.5t-140.5 -64.5q-45 0 -119 28l-53 17q-98 33 -127 33q-39 0 -59.5 -21.5t-34.5 -69.5h-98z" />
<glyph unicode="&#xd9;" horiz-adv-x="1478" d="M151 492v978h197v-925q0 -219 118 -322q97 -84 254 -84q166 0 265 80q124 103 124 322v929h197v-954q0 -242 -143 -391q-158 -166 -447 -166q-280 0 -432 162q-133 143 -133 371zM439 1905h221l180 -291h-135z" />
<glyph unicode="&#xda;" horiz-adv-x="1478" d="M151 492v978h197v-925q0 -219 118 -322q97 -84 254 -84q166 0 265 80q124 103 124 322v929h197v-954q0 -242 -143 -391q-158 -166 -447 -166q-280 0 -432 162q-133 143 -133 371zM640 1614l180 291h221l-266 -291h-135z" />
<glyph unicode="&#xdd;" horiz-adv-x="1454" d="M28 1470h233l422 -704l422 704h234l-557 -876v-594h-197v594zM609 1614l181 291h221l-266 -291h-136z" />
<glyph unicode="&#xe0;" horiz-adv-x="1175" d="M73 279q0 108 51 186q82 125 277 149l295 37q43 4 63 25q31 31 31 102q0 176 -250 176q-133 0 -195 -73q-36 -45 -51 -136h-168q0 185 123 275q113 82 320 82q131 0 229 -45q168 -76 168 -254v-615q0 -65 61 -65l58 8v-131q-23 -6 -48.5 -13t-50.5 -7q-108 0 -153 51 q-35 39 -35 112q-72 -75 -141 -114q-111 -62 -248 -62q-148 0 -242 86t-94 226zM240 1503h225l181 -286h-135zM261 307q0 -92 46.5 -140t146.5 -48q131 0 231.5 73.5t100.5 180.5v176q-23 -21 -80.5 -35t-199.5 -32.5t-193.5 -61.5t-51.5 -113z" />
<glyph unicode="&#xe1;" horiz-adv-x="1175" d="M73 279q0 108 51 186q82 125 277 149l295 37q43 4 63 25q31 31 31 102q0 176 -250 176q-133 0 -195 -73q-36 -45 -51 -136h-168q0 185 123 275q113 82 320 82q131 0 229 -45q168 -76 168 -254v-615q0 -65 61 -65l58 8v-131q-23 -6 -48.5 -13t-50.5 -7q-108 0 -153 51 q-35 39 -35 112q-72 -75 -141 -114q-111 -62 -248 -62q-148 0 -242 86t-94 226zM261 307q0 -92 46.5 -140t146.5 -48q131 0 231.5 73.5t100.5 180.5v176q-23 -21 -80.5 -35t-199.5 -32.5t-193.5 -61.5t-51.5 -113zM420 1217l180 286h226l-271 -286h-135z" />
<glyph unicode="&#xe2;" horiz-adv-x="1175" d="M73 279q0 108 51 186q82 125 277 149l295 37q43 4 63 25q31 31 31 102q0 176 -250 176q-133 0 -195 -73q-36 -45 -51 -136h-168q0 185 123 275q113 82 320 82q131 0 229 -45q168 -76 168 -254v-615q0 -65 61 -65l58 8v-131q-23 -6 -48.5 -13t-50.5 -7q-108 0 -153 51 q-35 39 -35 112q-72 -75 -141 -114q-111 -62 -248 -62q-148 0 -242 86t-94 226zM257 1196l201 287h193l200 -287h-164l-135 188l-135 -188h-160zM261 307q0 -92 46.5 -140t146.5 -48q131 0 231.5 73.5t100.5 180.5v176q-23 -21 -80.5 -35t-199.5 -32.5t-193.5 -61.5 t-51.5 -113z" />
<glyph unicode="&#xe3;" horiz-adv-x="1175" d="M73 279q0 108 51 186q82 125 277 149l295 37q43 4 63 25q31 31 31 102q0 176 -250 176q-133 0 -195 -73q-36 -45 -51 -136h-168q0 185 123 275q113 82 320 82q131 0 229 -45q168 -76 168 -254v-615q0 -65 61 -65l58 8v-131q-23 -6 -48.5 -13t-50.5 -7q-108 0 -153 51 q-35 39 -35 112q-72 -75 -141 -114q-111 -62 -248 -62q-148 0 -242 86t-94 226zM212 1241q13 98 65 159.5t148 61.5q35 0 68 -9t72 -23l45 -17q71 -29 98 -29q53 0 78 33q16 21 24 62h103q-13 -95 -68 -158.5t-137 -63.5q-25 0 -50.5 5.5t-72.5 19.5l-53 21q-27 8 -64 18 t-59 10q-39 0 -61.5 -23.5t-36.5 -66.5h-99zM261 307q0 -92 46.5 -140t146.5 -48q131 0 231.5 73.5t100.5 180.5v176q-23 -21 -80.5 -35t-199.5 -32.5t-193.5 -61.5t-51.5 -113z" />
<glyph unicode="&#xe8;" d="M81 508q0 266 123 422q135 172 393 172q225 0 342 -167t117 -456h-782q0 -170 78.5 -261t232.5 -91q119 0 201 74q69 63 77 135h181q-11 -62 -48 -129q-55 -103 -145 -162q-55 -37 -98 -51q-78 -27 -193 -27q-221 0 -350 150.5t-129 390.5zM240 1503h225l181 -286h-136z M274 623h598q0 137 -68 221q-78 98 -231 98q-123 0 -211 -96t-88 -223z" />
<glyph unicode="&#xe9;" d="M81 508q0 266 123 422q135 172 393 172q225 0 342 -167t117 -456h-782q0 -170 78.5 -261t232.5 -91q119 0 201 74q69 63 77 135h181q-11 -62 -48 -129q-55 -103 -145 -162q-55 -37 -98 -51q-78 -27 -193 -27q-221 0 -350 150.5t-129 390.5zM274 623h598q0 137 -68 221 q-78 98 -231 98q-123 0 -211 -96t-88 -223zM420 1217l180 286h226l-271 -286h-135z" />
<glyph unicode="&#xea;" d="M81 508q0 266 123 422q135 172 393 172q225 0 342 -167t117 -456h-782q0 -170 78.5 -261t232.5 -91q119 0 201 74q69 63 77 135h181q-11 -62 -48 -129q-55 -103 -145 -162q-55 -37 -98 -51q-78 -27 -193 -27q-221 0 -350 150.5t-129 390.5zM271 1196l201 287h193 l200 -287h-163l-136 188l-135 -188h-160zM274 623h598q0 137 -68 221q-78 98 -231 98q-123 0 -211 -96t-88 -223z" />
<glyph unicode="&#xec;" horiz-adv-x="487" d="M-70 1503h225l181 -286h-136zM139 0v1073h181v-1073h-181z" />
<glyph unicode="&#xed;" horiz-adv-x="487" d="M139 0v1073h180v-1073h-180zM140 1217l180 286h225l-270 -286h-135z" />
<glyph unicode="&#xf2;" horiz-adv-x="1179" d="M73 537q0 231 119 387q135 178 377 178q241 0 378 -178q121 -158 121 -387q0 -228 -121 -385q-137 -181 -378 -181q-240 0 -375 179q-121 157 -121 387zM251 1503h225l181 -286h-136zM257 537q0 -152 58 -258q82 -152 254 -152q170 0 252 149q59 109 59 261 q0 151 -57 258q-82 151 -254 151q-170 0 -252 -149q-60 -109 -60 -260z" />
<glyph unicode="&#xf3;" horiz-adv-x="1179" d="M73 537q0 231 119 387q135 178 377 178q241 0 378 -178q121 -158 121 -387q0 -228 -121 -385q-137 -181 -378 -181q-240 0 -375 179q-121 157 -121 387zM257 537q0 -152 58 -258q82 -152 254 -152q170 0 252 149q59 109 59 261q0 151 -57 258q-82 151 -254 151 q-170 0 -252 -149q-60 -109 -60 -260zM451 1217l180 286h226l-271 -286h-135z" />
<glyph unicode="&#xf4;" horiz-adv-x="1179" d="M73 537q0 231 119 387q135 178 377 178q241 0 378 -178q121 -158 121 -387q0 -228 -121 -385q-137 -181 -378 -181q-240 0 -375 179q-121 157 -121 387zM257 537q0 -152 58 -258q82 -152 254 -152q170 0 252 149q59 109 59 261q0 151 -57 258q-82 151 -254 151 q-170 0 -252 -149q-60 -109 -60 -260zM274 1196l200 287h193l201 -287h-164l-135 188l-136 -188h-159z" />
<glyph unicode="&#xf5;" horiz-adv-x="1179" d="M73 537q0 231 119 387q135 178 377 178q241 0 378 -178q121 -158 121 -387q0 -228 -121 -385q-137 -181 -378 -181q-240 0 -375 179q-121 157 -121 387zM218 1241q13 98 65 159.5t148 61.5q35 0 68 -9t71 -23l46 -17q71 -29 98 -29q53 0 78 33q16 21 24 62h103 q-13 -95 -68 -158.5t-137 -63.5q-25 0 -50.5 5.5t-72.5 19.5l-53 21q-27 8 -64 18t-59 10q-39 0 -61.5 -23.5t-36.5 -66.5h-99zM257 537q0 -152 58 -258q82 -152 254 -152q170 0 252 149q59 109 59 261q0 151 -57 258q-82 151 -254 151q-170 0 -252 -149q-60 -109 -60 -260z " />
<glyph unicode="&#xf9;" horiz-adv-x="582" />
<glyph unicode="&#xfa;" horiz-adv-x="580" />
<glyph unicode="&#xfd;" horiz-adv-x="629" />
<glyph unicode="&#x102;" horiz-adv-x="1454" d="M28 0l553 1470h225l533 -1470h-217l-144 430h-590l-155 -430h-205zM368 1839h98q11 -31 17 -45q14 -31 32 -53q27 -31 68 -48.5t104 -17.5q107 0 160 58q31 32 53 106h99q-19 -145 -107 -215q-80 -63 -221 -63q-135 0 -211 67.5t-92 210.5zM450 606h455l-218 647z" />
<glyph unicode="&#x103;" horiz-adv-x="1175" d="M73 279q0 108 51 186q82 125 277 149l295 37q43 4 63 25q31 31 31 102q0 176 -250 176q-133 0 -195 -73q-36 -45 -51 -136h-168q0 185 123 275q113 82 320 82q131 0 229 -45q168 -76 168 -254v-615q0 -65 61 -65l58 8v-131q-23 -6 -48.5 -13t-50.5 -7q-108 0 -153 51 q-35 39 -35 112q-72 -75 -141 -114q-111 -62 -248 -62q-148 0 -242 86t-94 226zM227 1475h98q11 -31 17 -45q14 -31 33 -54q26 -30 67 -47.5t105 -17.5q106 0 159 57q31 33 54 107h98q-19 -146 -107 -215q-80 -64 -221 -64q-135 0 -211 67.5t-92 211.5zM261 307 q0 -92 46.5 -140t146.5 -48q131 0 231.5 73.5t100.5 180.5v176q-23 -21 -80.5 -35t-199.5 -32.5t-193.5 -61.5t-51.5 -113z" />
<glyph unicode="&#x110;" horiz-adv-x="1568" d="M61 668v176h106v626h594q285 0 452 -195.5t167 -516.5q0 -129 -29 -252q-51 -213 -168 -338q-159 -168 -430 -168h-586v668h-106zM364 172h385q197 0 311.5 148.5t114.5 424.5q0 273 -115.5 415.5t-322.5 142.5h-373v-459h393v-176h-393v-496z" />
<glyph unicode="&#x111;" d="M73 569q0 234 118 383.5t328 149.5q127 0 216 -66q45 -32 104 -114l4 12v258h-258v156h258v122h180v-127h82v-143h-82v-1200h-172v147q-55 -98 -145 -143q-72 -37 -162 -37q-248 0 -373 203q-98 160 -98 399zM257 541q0 -185 75 -299.5t216 -114.5q111 0 189 72 q102 94 102 288q0 185 -45 291q-70 164 -242 164q-182 0 -252 -149q-43 -93 -43 -252z" />
<glyph unicode="&#x128;" horiz-adv-x="602" d="M-24 1642q14 101 59 154q54 64 154 64q35 0 68.5 -7.5t70.5 -21.5l45 -21q25 -10 53.5 -17t41.5 -7q53 0 77 31q17 20 25 63h102q-10 -96 -64 -160.5t-140 -64.5q-46 0 -119 28l-54 17q-98 33 -126 33q-39 0 -59.5 -21.5t-35.5 -69.5h-98zM188 0v1470h197v-1470h-197z " />
<glyph unicode="&#x129;" horiz-adv-x="487" d="M-82 1241q12 98 64.5 159.5t148.5 61.5q35 0 67.5 -9t71.5 -23l45 -17q72 -29 99 -29q53 0 77 33q17 21 25 62h102q-12 -95 -67 -158.5t-137 -63.5q-25 0 -50.5 5.5t-72.5 19.5l-54 21q-26 8 -63 18t-59 10q-39 0 -61.5 -23.5t-37.5 -66.5h-98zM139 0v1073h180v-1073 h-180z" />
<glyph unicode="&#x168;" horiz-adv-x="1478" d="M151 492v978h197v-925q0 -219 118 -322q97 -84 254 -84q166 0 265 80q124 103 124 322v929h197v-954q0 -242 -143 -391q-158 -166 -447 -166q-280 0 -432 162q-133 143 -133 371zM392 1642q15 101 60 154q53 64 153 64q35 0 69 -7.5t71 -21.5l45 -21q24 -10 53 -17t41 -7 q53 0 78 31q16 20 24 63h103q-11 -96 -65 -160.5t-140 -64.5q-45 0 -119 28l-53 17q-99 33 -127 33q-39 0 -59.5 -21.5t-34.5 -69.5h-99z" />
<glyph unicode="&#x169;" d="M139 303v770h180v-713q0 -124 60 -182q51 -51 149 -51q154 0 232 119q63 96 63 237v590h180v-1073h-172v156l-4 4q-57 -97 -137 -145t-203 -48q-139 0 -231 70q-117 88 -117 266zM258 1241q12 98 64.5 159.5t148.5 61.5q35 0 67.5 -9t71.5 -23l45 -17q72 -29 99 -29 q53 0 77 33q17 21 25 62h102q-12 -95 -67.5 -158.5t-136.5 -63.5q-25 0 -50.5 5.5t-72.5 19.5l-54 21q-26 8 -63 18t-59 10q-39 0 -61.5 -23.5t-37.5 -66.5h-98z" />
<glyph unicode="&#x1a0;" horiz-adv-x="1572" d="M94 737q0 293 152 504q194 270 565 270q102 0 189 -21.5t163 -64.5q12 2 42 25t40 33q27 24 36 53t9 66h-115v127h197v-181q0 -57 -61 -118q-46 -39 -78 -54q151 -108 229 -301q66 -160 66 -338q0 -297 -152 -508q-192 -270 -565 -270q-371 0 -563 268q-154 215 -154 510 zM299 737q0 -266 137 -432t375 -166q235 0 373.5 167t138.5 431t-135 428q-142 170 -377 170q-234 0 -373 -168t-139 -430z" />
<glyph unicode="&#x1a1;" d="M73 537q0 231 119 387q135 178 377 178q213 0 335 -123q11 2 33.5 22.5t36.5 34.5q27 25 36 53.5t9 65.5h-115v127h197v-180q0 -58 -61 -119q-23 -20 -44.5 -39.5t-37.5 -25.5q55 -76 82.5 -176.5t27.5 -204.5q0 -228 -121 -385q-137 -181 -378 -181q-240 0 -375 179 q-121 157 -121 387zM257 537q0 -152 58 -258q82 -152 254 -152q170 0 252 149q59 109 59 261q0 151 -57 258q-82 151 -254 151q-170 0 -252 -149q-60 -109 -60 -260z" />
<glyph unicode="&#x1af;" horiz-adv-x="1478" d="M151 492v978h197v-925q0 -219 118 -322q97 -84 254 -84q166 0 265 80q124 103 124 322v929h197v-69q12 4 31.5 15t33 22.5t19.5 29t6 31.5v49h-115v127h197v-180q0 -57 -61 -119q-23 -20 -56 -37q-10 -4 -55 -24v-799q0 -242 -143 -391q-158 -166 -447 -166 q-280 0 -432 162q-133 143 -133 371z" />
<glyph unicode="&#x1b0;" d="M139 303v770h180v-713q0 -124 60 -182q51 -51 149 -51q154 0 232 119q63 96 63 237v590h180v-69q13 4 31 20q10 12 14 16q27 25 34 53.5t7 69.5h-114v127h196v-180q0 -57 -61 -119q-53 -47 -107 -69v-922h-172v156l-4 4q-57 -97 -137 -145t-203 -48q-139 0 -231 70 q-117 88 -117 266z" />
<glyph unicode="&#x1ea0;" horiz-adv-x="1454" d="M28 0l553 1470h225l533 -1470h-217l-144 430h-590l-155 -430h-205zM450 606h455l-218 647zM593 -143h180v-205h-180v205z" />
<glyph unicode="&#x1ea1;" horiz-adv-x="1175" d="M73 279q0 108 51 186q82 125 277 149l295 37q43 4 63 25q31 31 31 102q0 176 -250 176q-133 0 -195 -73q-36 -45 -51 -136h-168q0 185 123 275q113 82 320 82q131 0 229 -45q168 -76 168 -254v-615q0 -65 61 -65l58 8v-131q-23 -6 -48.5 -13t-50.5 -7q-108 0 -153 51 q-35 39 -35 112q-72 -75 -141 -114q-111 -62 -248 -62q-148 0 -242 86t-94 226zM261 307q0 -92 46.5 -140t146.5 -48q131 0 231.5 73.5t100.5 180.5v176q-23 -21 -80.5 -35t-199.5 -32.5t-193.5 -61.5t-51.5 -113zM460 -139h181v-205h-181v205z" />
<glyph unicode="&#x1ea2;" horiz-adv-x="1454" d="M28 0l553 1470h225l533 -1470h-217l-144 430h-590l-155 -430h-205zM450 606h455l-218 647zM458 1837q0 111 72 168q61 49 149 49q78 0 137 -31q99 -51 99 -165q0 -54 -25.5 -90.5t-86 -79.5t-60.5 -138h-117q0 78 16.5 124t75 87t58.5 92q0 50 -27 71.5t-62 21.5 q-55 0 -76.5 -31t-21.5 -76z" />
<glyph unicode="&#x1ea3;" horiz-adv-x="1175" d="M73 279q0 108 51 186q82 125 277 149l295 37q43 4 63 25q31 31 31 102q0 176 -250 176q-133 0 -195 -73q-36 -45 -51 -136h-168q0 185 123 275q113 82 320 82q131 0 229 -45q168 -76 168 -254v-615q0 -65 61 -65l58 8v-131q-23 -6 -48.5 -13t-50.5 -7q-108 0 -153 51 q-35 39 -35 112q-72 -75 -141 -114q-111 -62 -248 -62q-148 0 -242 86t-94 226zM261 307q0 -92 46.5 -140t146.5 -48q131 0 231.5 73.5t100.5 180.5v176q-23 -21 -80.5 -35t-199.5 -32.5t-193.5 -61.5t-51.5 -113zM302 1440q0 110 72 168q61 49 150 49q77 0 137 -31 q98 -51 98 -166q0 -53 -25.5 -90t-85.5 -80q-32 -22 -44.5 -43.5t-12.5 -68.5h-121q0 71 15.5 107t75 78t59.5 93q0 49 -26.5 70.5t-61.5 21.5q-56 0 -77.5 -30.5t-21.5 -75.5z" />
<glyph unicode="&#x1ea4;" horiz-adv-x="1454" d="M28 0l553 1470h225l533 -1470h-217l-144 430h-590l-155 -430h-205zM384 1618l205 291h189l204 -291h-163l-136 192l-135 -192h-164zM450 606h455l-218 647zM900 1835l181 291h221l-266 -291h-136z" />
<glyph unicode="&#x1ea5;" horiz-adv-x="1175" d="M73 279q0 108 51 186q82 125 277 149l295 37q43 4 63 25q31 31 31 102q0 176 -250 176q-133 0 -195 -73q-36 -45 -51 -136h-168q0 185 123 275q113 82 320 82q131 0 229 -45q168 -76 168 -254v-615q0 -65 61 -65l58 8v-131q-23 -6 -48.5 -13t-50.5 -7q-108 0 -153 51 q-35 39 -35 112q-72 -75 -141 -114q-111 -62 -248 -62q-148 0 -242 86t-94 226zM257 1196l201 287h193l200 -287h-164l-135 188l-135 -188h-160zM261 307q0 -92 46.5 -140t146.5 -48q131 0 231.5 73.5t100.5 180.5v176q-23 -21 -80.5 -35t-199.5 -32.5t-193.5 -61.5 t-51.5 -113zM731 1428l180 286h226l-271 -286h-135z" />
<glyph unicode="&#x1ea6;" horiz-adv-x="1454" d="M28 0l553 1470h225l533 -1470h-217l-144 430h-590l-155 -430h-205zM384 1618l205 291h189l204 -291h-163l-136 192l-135 -192h-164zM450 606h455l-218 647zM668 2159h221l181 -291h-136z" />
<glyph unicode="&#x1ea7;" horiz-adv-x="1175" d="M73 279q0 108 51 186q82 125 277 149l295 37q43 4 63 25q31 31 31 102q0 176 -250 176q-133 0 -195 -73q-36 -45 -51 -136h-168q0 185 123 275q113 82 320 82q131 0 229 -45q168 -76 168 -254v-615q0 -65 61 -65l58 8v-131q-23 -6 -48.5 -13t-50.5 -7q-108 0 -153 51 q-35 39 -35 112q-72 -75 -141 -114q-111 -62 -248 -62q-148 0 -242 86t-94 226zM257 1196l201 287h193l200 -287h-164l-135 188l-135 -188h-160zM261 307q0 -92 46.5 -140t146.5 -48q131 0 231.5 73.5t100.5 180.5v176q-23 -21 -80.5 -35t-199.5 -32.5t-193.5 -61.5 t-51.5 -113zM511 1703h225l181 -286h-135z" />
<glyph unicode="&#x1ea8;" horiz-adv-x="1454" d="M28 0l553 1470h225l533 -1470h-217l-144 430h-590l-155 -430h-205zM384 1618l205 291h189l204 -291h-163l-136 192l-135 -192h-164zM450 606h455l-218 647zM729 2118q0 111 72 168q61 49 149 49q78 0 137 -31q99 -51 99 -165q0 -54 -25.5 -90.5t-86 -79.5t-60.5 -138 h-117q0 78 16.5 124t75 87t58.5 92q0 50 -27 71.5t-62 21.5q-55 0 -76.5 -31t-21.5 -76z" />
<glyph unicode="&#x1ea9;" horiz-adv-x="1175" d="M73 279q0 108 51 186q82 125 277 149l295 37q43 4 63 25q31 31 31 102q0 176 -250 176q-133 0 -195 -73q-36 -45 -51 -136h-168q0 185 123 275q113 82 320 82q131 0 229 -45q168 -76 168 -254v-615q0 -65 61 -65l58 8v-131q-23 -6 -48.5 -13t-50.5 -7q-108 0 -153 51 q-35 39 -35 112q-72 -75 -141 -114q-111 -62 -248 -62q-148 0 -242 86t-94 226zM257 1196l201 287h193l200 -287h-164l-135 188l-135 -188h-160zM261 307q0 -92 46.5 -140t146.5 -48q131 0 231.5 73.5t100.5 180.5v176q-23 -21 -80.5 -35t-199.5 -32.5t-193.5 -61.5 t-51.5 -113zM583 1671q0 110 72 168q61 49 150 49q77 0 137 -31q98 -51 98 -166q0 -53 -25.5 -90t-85.5 -80q-32 -22 -44.5 -43.5t-12.5 -68.5h-121q0 71 15.5 107t75 78t59.5 93q0 49 -26.5 70.5t-61.5 21.5q-56 0 -77.5 -30.5t-21.5 -75.5z" />
<glyph unicode="&#x1eaa;" horiz-adv-x="1454" d="M28 0l553 1470h225l533 -1470h-217l-144 430h-590l-155 -430h-205zM384 1618l205 291h189l204 -291h-163l-136 192l-135 -192h-164zM428 1973q14 101 59 154q53 64 154 64q35 0 68.5 -7.5t70.5 -21.5l45 -21q25 -10 53.5 -17t40.5 -7q53 0 78 31q16 20 25 63h102 q-10 -96 -64.5 -160.5t-140.5 -64.5q-45 0 -119 28l-53 17q-98 33 -127 33q-39 0 -59.5 -21.5t-34.5 -69.5h-98zM450 606h455l-218 647z" />
<glyph unicode="&#x1eab;" horiz-adv-x="1175" d="M73 279q0 108 51 186q82 125 277 149l295 37q43 4 63 25q31 31 31 102q0 176 -250 176q-133 0 -195 -73q-36 -45 -51 -136h-168q0 185 123 275q113 82 320 82q131 0 229 -45q168 -76 168 -254v-615q0 -65 61 -65l58 8v-131q-23 -6 -48.5 -13t-50.5 -7q-108 0 -153 51 q-35 39 -35 112q-72 -75 -141 -114q-111 -62 -248 -62q-148 0 -242 86t-94 226zM257 1196l201 287h193l200 -287h-164l-135 188l-135 -188h-160zM261 307q0 -92 46.5 -140t146.5 -48q131 0 231.5 73.5t100.5 180.5v176q-23 -21 -80.5 -35t-199.5 -32.5t-193.5 -61.5 t-51.5 -113zM292 1492q13 98 65 159.5t148 61.5q35 0 68 -9t72 -23l45 -17q71 -29 98 -29q53 0 78 33q16 21 24 62h103q-13 -95 -68 -158.5t-137 -63.5q-25 0 -50.5 5.5t-72.5 19.5l-53 21q-27 8 -64 18t-59 10q-39 0 -61.5 -23.5t-36.5 -66.5h-99z" />
<glyph unicode="&#x1eac;" horiz-adv-x="1454" d="M28 0l553 1470h225l533 -1470h-217l-144 430h-590l-155 -430h-205zM384 1618l205 291h189l204 -291h-163l-136 192l-135 -192h-164zM450 606h455l-218 647zM593 -143h180v-205h-180v205z" />
<glyph unicode="&#x1ead;" horiz-adv-x="1175" d="M73 279q0 108 51 186q82 125 277 149l295 37q43 4 63 25q31 31 31 102q0 176 -250 176q-133 0 -195 -73q-36 -45 -51 -136h-168q0 185 123 275q113 82 320 82q131 0 229 -45q168 -76 168 -254v-615q0 -65 61 -65l58 8v-131q-23 -6 -48.5 -13t-50.5 -7q-108 0 -153 51 q-35 39 -35 112q-72 -75 -141 -114q-111 -62 -248 -62q-148 0 -242 86t-94 226zM257 1196l201 287h193l200 -287h-164l-135 188l-135 -188h-160zM261 307q0 -92 46.5 -140t146.5 -48q131 0 231.5 73.5t100.5 180.5v176q-23 -21 -80.5 -35t-199.5 -32.5t-193.5 -61.5 t-51.5 -113zM460 -139h181v-205h-181v205z" />
<glyph unicode="&#x1eae;" horiz-adv-x="1454" d="M28 0l553 1470h225l533 -1470h-217l-144 430h-590l-155 -430h-205zM368 1839h98q11 -31 17 -45q14 -31 32 -53q27 -31 68 -48.5t104 -17.5q107 0 160 58q31 32 53 106h99q-19 -145 -107 -215q-80 -63 -221 -63q-135 0 -211 67.5t-92 210.5zM450 606h455l-218 647z M609 1835l181 291h221l-266 -291h-136z" />
<glyph unicode="&#x1eaf;" horiz-adv-x="1175" d="M73 279q0 108 51 186q82 125 277 149l295 37q43 4 63 25q31 31 31 102q0 176 -250 176q-133 0 -195 -73q-36 -45 -51 -136h-168q0 185 123 275q113 82 320 82q131 0 229 -45q168 -76 168 -254v-615q0 -65 61 -65l58 8v-131q-23 -6 -48.5 -13t-50.5 -7q-108 0 -153 51 q-35 39 -35 112q-72 -75 -141 -114q-111 -62 -248 -62q-148 0 -242 86t-94 226zM227 1475h98q11 -31 17 -45q14 -31 33 -54q26 -30 67 -47.5t105 -17.5q106 0 159 57q31 33 54 107h98q-19 -146 -107 -215q-80 -64 -221 -64q-135 0 -211 67.5t-92 211.5zM261 307 q0 -92 46.5 -140t146.5 -48q131 0 231.5 73.5t100.5 180.5v176q-23 -21 -80.5 -35t-199.5 -32.5t-193.5 -61.5t-51.5 -113zM480 1458l180 286h226l-271 -286h-135z" />
<glyph unicode="&#x1eb0;" horiz-adv-x="1454" d="M28 0l553 1470h225l533 -1470h-217l-144 430h-590l-155 -430h-205zM367 2159h221l181 -291h-136zM368 1839h98q11 -31 17 -45q14 -31 32 -53q27 -31 68 -48.5t104 -17.5q107 0 160 58q31 32 53 106h99q-19 -145 -107 -215q-80 -63 -221 -63q-135 0 -211 67.5t-92 210.5z M450 606h455l-218 647z" />
<glyph unicode="&#x1eb1;" horiz-adv-x="1175" d="M73 279q0 108 51 186q82 125 277 149l295 37q43 4 63 25q31 31 31 102q0 176 -250 176q-133 0 -195 -73q-36 -45 -51 -136h-168q0 185 123 275q113 82 320 82q131 0 229 -45q168 -76 168 -254v-615q0 -65 61 -65l58 8v-131q-23 -6 -48.5 -13t-50.5 -7q-108 0 -153 51 q-35 39 -35 112q-72 -75 -141 -114q-111 -62 -248 -62q-148 0 -242 86t-94 226zM227 1475h98q11 -31 17 -45q14 -31 33 -54q26 -30 67 -47.5t105 -17.5q106 0 159 57q31 33 54 107h98q-19 -146 -107 -215q-80 -64 -221 -64q-135 0 -211 67.5t-92 211.5zM230 1743h225 l181 -286h-135zM261 307q0 -92 46.5 -140t146.5 -48q131 0 231.5 73.5t100.5 180.5v176q-23 -21 -80.5 -35t-199.5 -32.5t-193.5 -61.5t-51.5 -113z" />
<glyph unicode="&#x1eb2;" horiz-adv-x="1454" d="M28 0l553 1470h225l533 -1470h-217l-144 430h-590l-155 -430h-205zM368 1839h98q11 -31 17 -45q14 -31 32 -53q27 -31 68 -48.5t104 -17.5q107 0 160 58q31 32 53 106h99q-19 -145 -107 -215q-80 -63 -221 -63q-135 0 -211 67.5t-92 210.5zM448 2098q0 111 72 168 q61 49 149 49q78 0 137 -31q99 -51 99 -165q0 -54 -25.5 -90.5t-86 -79.5t-60.5 -138h-117q0 78 16.5 124t75 87t58.5 92q0 50 -27 71.5t-62 21.5q-55 0 -76.5 -31t-21.5 -76zM450 606h455l-218 647z" />
<glyph unicode="&#x1eb3;" horiz-adv-x="1175" d="M73 279q0 108 51 186q82 125 277 149l295 37q43 4 63 25q31 31 31 102q0 176 -250 176q-133 0 -195 -73q-36 -45 -51 -136h-168q0 185 123 275q113 82 320 82q131 0 229 -45q168 -76 168 -254v-615q0 -65 61 -65l58 8v-131q-23 -6 -48.5 -13t-50.5 -7q-108 0 -153 51 q-35 39 -35 112q-72 -75 -141 -114q-111 -62 -248 -62q-148 0 -242 86t-94 226zM227 1475h98q11 -31 17 -45q14 -31 33 -54q26 -30 67 -47.5t105 -17.5q106 0 159 57q31 33 54 107h98q-19 -146 -107 -215q-80 -64 -221 -64q-135 0 -211 67.5t-92 211.5zM261 307 q0 -92 46.5 -140t146.5 -48q131 0 231.5 73.5t100.5 180.5v176q-23 -21 -80.5 -35t-199.5 -32.5t-193.5 -61.5t-51.5 -113zM322 1731q0 110 72 168q61 49 150 49q77 0 137 -31q98 -51 98 -166q0 -53 -25.5 -90t-85.5 -80q-32 -22 -44.5 -43.5t-12.5 -68.5h-121 q0 71 15.5 107t75 78t59.5 93q0 49 -26.5 70.5t-61.5 21.5q-56 0 -77.5 -30.5t-21.5 -75.5z" />
<glyph unicode="&#x1eb4;" horiz-adv-x="1454" d="M28 0l553 1470h225l533 -1470h-217l-144 430h-590l-155 -430h-205zM368 1839h98q11 -31 17 -45q14 -31 32 -53q27 -31 68 -48.5t104 -17.5q107 0 160 58q31 32 53 106h99q-19 -145 -107 -215q-80 -63 -221 -63q-135 0 -211 67.5t-92 210.5zM448 1903q14 101 59 154 q53 64 154 64q35 0 68.5 -7.5t70.5 -21.5l45 -21q25 -10 53.5 -17t40.5 -7q53 0 78 31q16 20 25 63h102q-10 -96 -64.5 -160.5t-140.5 -64.5q-45 0 -119 28l-53 17q-98 33 -127 33q-39 0 -59.5 -21.5t-34.5 -69.5h-98zM450 606h455l-218 647z" />
<glyph unicode="&#x1eb5;" horiz-adv-x="1175" d="M73 279q0 108 51 186q82 125 277 149l295 37q43 4 63 25q31 31 31 102q0 176 -250 176q-133 0 -195 -73q-36 -45 -51 -136h-168q0 185 123 275q113 82 320 82q131 0 229 -45q168 -76 168 -254v-615q0 -65 61 -65l58 8v-131q-23 -6 -48.5 -13t-50.5 -7q-108 0 -153 51 q-35 39 -35 112q-72 -75 -141 -114q-111 -62 -248 -62q-148 0 -242 86t-94 226zM227 1475h98q11 -31 17 -45q14 -31 33 -54q26 -30 67 -47.5t105 -17.5q106 0 159 57q31 33 54 107h98q-19 -146 -107 -215q-80 -64 -221 -64q-135 0 -211 67.5t-92 211.5zM261 307 q0 -92 46.5 -140t146.5 -48q131 0 231.5 73.5t100.5 180.5v176q-23 -21 -80.5 -35t-199.5 -32.5t-193.5 -61.5t-51.5 -113zM302 1522q13 98 65 159.5t148 61.5q35 0 68 -9t72 -23l45 -17q71 -29 98 -29q53 0 78 33q16 21 24 62h103q-13 -95 -68 -158.5t-137 -63.5 q-25 0 -50.5 5.5t-72.5 19.5l-53 21q-27 8 -64 18t-59 10q-39 0 -61.5 -23.5t-36.5 -66.5h-99z" />
<glyph unicode="&#x1eb6;" horiz-adv-x="1454" d="M28 0l553 1470h225l533 -1470h-217l-144 430h-590l-155 -430h-205zM368 1839h98q11 -31 17 -45q14 -31 32 -53q27 -31 68 -48.5t104 -17.5q107 0 160 58q31 32 53 106h99q-19 -145 -107 -215q-80 -63 -221 -63q-135 0 -211 67.5t-92 210.5zM450 606h455l-218 647z M593 -143h180v-205h-180v205z" />
<glyph unicode="&#x1eb7;" horiz-adv-x="1175" d="M73 279q0 108 51 186q82 125 277 149l295 37q43 4 63 25q31 31 31 102q0 176 -250 176q-133 0 -195 -73q-36 -45 -51 -136h-168q0 185 123 275q113 82 320 82q131 0 229 -45q168 -76 168 -254v-615q0 -65 61 -65l58 8v-131q-23 -6 -48.5 -13t-50.5 -7q-108 0 -153 51 q-35 39 -35 112q-72 -75 -141 -114q-111 -62 -248 -62q-148 0 -242 86t-94 226zM227 1475h98q11 -31 17 -45q14 -31 33 -54q26 -30 67 -47.5t105 -17.5q106 0 159 57q31 33 54 107h98q-19 -146 -107 -215q-80 -64 -221 -64q-135 0 -211 67.5t-92 211.5zM261 307 q0 -92 46.5 -140t146.5 -48q131 0 231.5 73.5t100.5 180.5v176q-23 -21 -80.5 -35t-199.5 -32.5t-193.5 -61.5t-51.5 -113zM460 -139h181v-205h-181v205z" />
<glyph unicode="&#x1eb8;" horiz-adv-x="1454" d="M176 0v1470h1073v-176h-872v-450h803v-176h-803v-492h884v-176h-1085zM594 -143h180v-205h-180v205z" />
<glyph unicode="&#x1eb9;" d="M81 508q0 266 123 422q135 172 393 172q225 0 342 -167t117 -456h-782q0 -170 78.5 -261t232.5 -91q119 0 201 74q69 63 77 135h181q-11 -62 -48 -129q-55 -103 -145 -162q-55 -37 -98 -51q-78 -27 -193 -27q-221 0 -350 150.5t-129 390.5zM274 623h598q0 137 -68 221 q-78 98 -231 98q-123 0 -211 -96t-88 -223zM478 -139h181v-205h-181v205z" />
<glyph unicode="&#x1eba;" horiz-adv-x="1454" d="M176 0v1470h1073v-176h-872v-450h803v-176h-803v-492h884v-176h-1085zM459 1837q0 111 71 168q62 49 150 49q78 0 137 -31q98 -51 98 -165q0 -54 -25.5 -90.5t-86 -79.5t-60.5 -138h-116q0 78 16 124t74.5 87t58.5 92q0 50 -26.5 71.5t-61.5 21.5q-55 0 -76.5 -31 t-21.5 -76z" />
<glyph unicode="&#x1ebb;" d="M81 508q0 266 123 422q135 172 393 172q225 0 342 -167t117 -456h-782q0 -170 78.5 -261t232.5 -91q119 0 201 74q69 63 77 135h181q-11 -62 -48 -129q-55 -103 -145 -162q-55 -37 -98 -51q-78 -27 -193 -27q-221 0 -350 150.5t-129 390.5zM274 623h598q0 137 -68 221 q-78 98 -231 98q-123 0 -211 -96t-88 -223zM340 1440q0 110 72 168q61 49 149 49q78 0 137 -31q99 -51 99 -166q0 -53 -25.5 -90t-85.5 -80q-33 -22 -45 -43.5t-12 -68.5h-121q0 71 15.5 107t75 78t59.5 93q0 49 -27 70.5t-62 21.5q-55 0 -76.5 -30.5t-21.5 -75.5z" />
<glyph unicode="&#x1ebc;" horiz-adv-x="1454" d="M176 0v1470h1073v-176h-872v-450h803v-176h-803v-492h884v-176h-1085zM358 1642q15 101 60 154q53 64 153 64q35 0 69 -7.5t71 -21.5l45 -21q24 -10 53 -17t41 -7q53 0 78 31q16 20 24 63h103q-11 -96 -65 -160.5t-140 -64.5q-45 0 -119 28l-53 17q-99 33 -127 33 q-39 0 -59.5 -21.5t-34.5 -69.5h-99z" />
<glyph unicode="&#x1ebd;" d="M81 508q0 266 123 422q135 172 393 172q225 0 342 -167t117 -456h-782q0 -170 78.5 -261t232.5 -91q119 0 201 74q69 63 77 135h181q-11 -62 -48 -129q-55 -103 -145 -162q-55 -37 -98 -51q-78 -27 -193 -27q-221 0 -350 150.5t-129 390.5zM218 1241q13 98 65 159.5 t148 61.5q35 0 68 -9t71 -23l46 -17q71 -29 98 -29q53 0 78 33q16 21 24 62h103q-13 -95 -68 -158.5t-137 -63.5q-25 0 -50.5 5.5t-72.5 19.5l-53 21q-27 8 -64 18t-59 10q-39 0 -61.5 -23.5t-36.5 -66.5h-99zM274 623h598q0 137 -68 221q-78 98 -231 98q-123 0 -211 -96 t-88 -223z" />
<glyph unicode="&#x1ebe;" horiz-adv-x="1454" d="M176 0v1470h1073v-176h-872v-450h803v-176h-803v-492h884v-176h-1085zM420 1618l205 291h188l205 -291h-164l-135 192l-135 -192h-164zM900 1845l180 291h221l-266 -291h-135z" />
<glyph unicode="&#x1ebf;" d="M81 508q0 266 123 422q135 172 393 172q225 0 342 -167t117 -456h-782q0 -170 78.5 -261t232.5 -91q119 0 201 74q69 63 77 135h181q-11 -62 -48 -129q-55 -103 -145 -162q-55 -37 -98 -51q-78 -27 -193 -27q-221 0 -350 150.5t-129 390.5zM257 1196l201 287h192 l201 -287h-164l-135 188l-135 -188h-160zM274 623h598q0 137 -68 221q-78 98 -231 98q-123 0 -211 -96t-88 -223zM741 1418l180 286h226l-271 -286h-135z" />
<glyph unicode="&#x1ec0;" horiz-adv-x="1454" d="M176 0v1470h1073v-176h-872v-450h803v-176h-803v-492h884v-176h-1085zM420 1618l205 291h188l205 -291h-164l-135 192l-135 -192h-164zM680 2126h221l180 -291h-135z" />
<glyph unicode="&#x1ec1;" d="M81 508q0 266 123 422q135 172 393 172q225 0 342 -167t117 -456h-782q0 -170 78.5 -261t232.5 -91q119 0 201 74q69 63 77 135h181q-11 -62 -48 -129q-55 -103 -145 -162q-55 -37 -98 -51q-78 -27 -193 -27q-221 0 -350 150.5t-129 390.5zM257 1196l201 287h192 l201 -287h-164l-135 188l-135 -188h-160zM274 623h598q0 137 -68 221q-78 98 -231 98q-123 0 -211 -96t-88 -223zM511 1714h225l181 -286h-136z" />
<glyph unicode="&#x1ec2;" horiz-adv-x="1454" d="M176 0v1470h1073v-176h-872v-450h803v-176h-803v-492h884v-176h-1085zM420 1618l205 291h188l205 -291h-164l-135 192l-135 -192h-164zM780 2088q0 111 71 168q62 49 150 49q78 0 137 -31q98 -51 98 -165q0 -54 -25.5 -90.5t-86 -79.5t-60.5 -138h-116q0 78 16 124 t74.5 87t58.5 92q0 50 -26.5 71.5t-61.5 21.5q-55 0 -76.5 -31t-21.5 -76z" />
<glyph unicode="&#x1ec3;" d="M81 508q0 266 123 422q135 172 393 172q225 0 342 -167t117 -456h-782q0 -170 78.5 -261t232.5 -91q119 0 201 74q69 63 77 135h181q-11 -62 -48 -129q-55 -103 -145 -162q-55 -37 -98 -51q-78 -27 -193 -27q-221 0 -350 150.5t-129 390.5zM257 1196l201 287h192 l201 -287h-164l-135 188l-135 -188h-160zM274 623h598q0 137 -68 221q-78 98 -231 98q-123 0 -211 -96t-88 -223zM570 1691q0 110 72 168q61 49 149 49q78 0 137 -31q99 -51 99 -166q0 -53 -25.5 -90t-85.5 -80q-33 -22 -45 -43.5t-12 -68.5h-121q0 71 15.5 107t75 78 t59.5 93q0 49 -27 70.5t-62 21.5q-55 0 -76.5 -30.5t-21.5 -75.5z" />
<glyph unicode="&#x1ec4;" horiz-adv-x="1454" d="M176 0v1470h1073v-176h-872v-450h803v-176h-803v-492h884v-176h-1085zM420 1618l205 291h188l205 -291h-164l-135 192l-135 -192h-164zM448 1933q15 101 60 154q53 64 153 64q35 0 69 -7.5t71 -21.5l45 -21q24 -10 53 -17t41 -7q53 0 78 31q16 20 24 63h103 q-11 -96 -65 -160.5t-140 -64.5q-45 0 -119 28l-53 17q-99 33 -127 33q-39 0 -59.5 -21.5t-34.5 -69.5h-99z" />
<glyph unicode="&#x1ec5;" d="M81 508q0 266 123 422q135 172 393 172q225 0 342 -167t117 -456h-782q0 -170 78.5 -261t232.5 -91q119 0 201 74q69 63 77 135h181q-11 -62 -48 -129q-55 -103 -145 -162q-55 -37 -98 -51q-78 -27 -193 -27q-221 0 -350 150.5t-129 390.5zM257 1196l201 287h192 l201 -287h-164l-135 188l-135 -188h-160zM274 623h598q0 137 -68 221q-78 98 -231 98q-123 0 -211 -96t-88 -223zM278 1502q13 98 65 159.5t148 61.5q35 0 68 -9t71 -23l46 -17q71 -29 98 -29q53 0 78 33q16 21 24 62h103q-13 -95 -68 -158.5t-137 -63.5q-25 0 -50.5 5.5 t-72.5 19.5l-53 21q-27 8 -64 18t-59 10q-39 0 -61.5 -23.5t-36.5 -66.5h-99z" />
<glyph unicode="&#x1ec6;" horiz-adv-x="1454" d="M176 0v1470h1073v-176h-872v-450h803v-176h-803v-492h884v-176h-1085zM420 1618l205 291h188l205 -291h-164l-135 192l-135 -192h-164zM594 -143h180v-205h-180v205z" />
<glyph unicode="&#x1ec7;" d="M81 508q0 266 123 422q135 172 393 172q225 0 342 -167t117 -456h-782q0 -170 78.5 -261t232.5 -91q119 0 201 74q69 63 77 135h181q-11 -62 -48 -129q-55 -103 -145 -162q-55 -37 -98 -51q-78 -27 -193 -27q-221 0 -350 150.5t-129 390.5zM257 1196l201 287h192 l201 -287h-164l-135 188l-135 -188h-160zM274 623h598q0 137 -68 221q-78 98 -231 98q-123 0 -211 -96t-88 -223zM478 -139h181v-205h-181v205z" />
<glyph unicode="&#x1ec8;" horiz-adv-x="602" d="M57 1837q0 111 72 168q61 49 149 49q78 0 137 -31q99 -51 99 -165q0 -54 -25.5 -90.5t-86 -79.5t-60.5 -138h-117q0 78 16.5 124t74.5 87t58 92q0 50 -26.5 71.5t-61.5 21.5q-55 0 -76.5 -31t-21.5 -76zM189 0v1470h196v-1470h-196z" />
<glyph unicode="&#x1ec9;" horiz-adv-x="487" d="M-1 1440q0 110 72 168q61 49 149 49q78 0 137 -31q99 -51 99 -166q0 -53 -25.5 -90t-85.5 -80q-33 -22 -45 -43.5t-12 -68.5h-121q0 71 15.5 107t74.5 78t59 93q0 49 -26.5 70.5t-61.5 21.5q-55 0 -76.5 -30.5t-21.5 -75.5zM139 0v1073h180v-1073h-180z" />
<glyph unicode="&#x1eca;" horiz-adv-x="602" d="M188 0v1470h197v-1470h-197zM192 -143h180v-205h-180v205z" />
<glyph unicode="&#x1ecb;" horiz-adv-x="487" d="M139 1266v204h180v-204h-180zM143 0v1073h181v-1073h-181zM143 -139h181v-205h-181v205z" />
<glyph unicode="&#x1ecc;" horiz-adv-x="1572" d="M94 737q0 293 152 504q194 270 565 270q370 0 563 -268q154 -213 154 -506q0 -297 -152 -508q-192 -270 -565 -270q-371 0 -563 268q-154 215 -154 510zM299 737q0 -266 137 -432t375 -166q235 0 373.5 167t138.5 431t-135 428q-142 170 -377 170q-234 0 -373 -168 t-139 -430zM721 -143h180v-205h-180v205z" />
<glyph unicode="&#x1ecd;" horiz-adv-x="1179" d="M73 537q0 231 119 387q135 178 377 178q241 0 378 -178q121 -158 121 -387q0 -228 -121 -385q-137 -181 -378 -181q-240 0 -375 179q-121 157 -121 387zM257 537q0 -152 58 -258q82 -152 254 -152q170 0 252 149q59 109 59 261q0 151 -57 258q-82 151 -254 151 q-170 0 -252 -149q-60 -109 -60 -260zM481 -139h180v-205h-180v205z" />
<glyph unicode="&#x1ece;" horiz-adv-x="1572" d="M94 737q0 293 152 504q194 270 565 270q370 0 563 -268q154 -213 154 -506q0 -297 -152 -508q-192 -270 -565 -270q-371 0 -563 268q-154 215 -154 510zM299 737q0 -266 137 -432t375 -166q235 0 373.5 167t138.5 431t-135 428q-142 170 -377 170q-234 0 -373 -168 t-139 -430zM582 1867q0 111 72 168q62 49 150 49q77 0 137 -31q98 -51 98 -165q0 -54 -25.5 -90.5t-86 -79.5t-60.5 -138h-117q0 78 16.5 124t75 87t58.5 92q0 50 -26.5 71.5t-61.5 21.5q-55 0 -76.5 -31t-21.5 -76z" />
<glyph unicode="&#x1ecf;" horiz-adv-x="1179" d="M73 537q0 231 119 387q135 178 377 178q241 0 378 -178q121 -158 121 -387q0 -228 -121 -385q-137 -181 -378 -181q-240 0 -375 179q-121 157 -121 387zM257 537q0 -152 58 -258q82 -152 254 -152q170 0 252 149q59 109 59 261q0 151 -57 258q-82 151 -254 151 q-170 0 -252 -149q-60 -109 -60 -260zM340 1440q0 110 72 168q61 49 149 49q78 0 137 -31q99 -51 99 -166q0 -53 -25.5 -90t-85.5 -80q-33 -22 -45 -43.5t-12 -68.5h-121q0 71 15.5 107t75 78t59.5 93q0 49 -27 70.5t-62 21.5q-55 0 -76.5 -30.5t-21.5 -75.5z" />
<glyph unicode="&#x1ed0;" horiz-adv-x="1572" d="M94 737q0 293 152 504q194 270 565 270q370 0 563 -268q154 -213 154 -506q0 -297 -152 -508q-192 -270 -565 -270q-371 0 -563 268q-154 215 -154 510zM299 737q0 -266 137 -432t375 -166q235 0 373.5 167t138.5 431t-135 428q-142 170 -377 170q-234 0 -373 -168 t-139 -430zM512 1618l205 291h188l205 -291h-164l-135 192l-135 -192h-164zM991 1835l180 291h221l-266 -291h-135z" />
<glyph unicode="&#x1ed1;" horiz-adv-x="1179" d="M73 537q0 231 119 387q135 178 377 178q241 0 378 -178q121 -158 121 -387q0 -228 -121 -385q-137 -181 -378 -181q-240 0 -375 179q-121 157 -121 387zM257 537q0 -152 58 -258q82 -152 254 -152q170 0 252 149q59 109 59 261q0 151 -57 258q-82 151 -254 151 q-170 0 -252 -149q-60 -109 -60 -260zM274 1196l201 287h193l200 -287h-163l-136 188l-135 -188h-160zM752 1418l180 286h226l-271 -286h-135z" />
<glyph unicode="&#x1ed2;" horiz-adv-x="1572" d="M94 737q0 293 152 504q194 270 565 270q370 0 563 -268q154 -213 154 -506q0 -297 -152 -508q-192 -270 -565 -270q-371 0 -563 268q-154 215 -154 510zM299 737q0 -266 137 -432t375 -166q235 0 373.5 167t138.5 431t-135 428q-142 170 -377 170q-234 0 -373 -168 t-139 -430zM512 1618l205 291h188l205 -291h-164l-135 192l-135 -192h-164zM770 2106h221l180 -291h-135z" />
<glyph unicode="&#x1ed3;" horiz-adv-x="1179" d="M73 537q0 231 119 387q135 178 377 178q241 0 378 -178q121 -158 121 -387q0 -228 -121 -385q-137 -181 -378 -181q-240 0 -375 179q-121 157 -121 387zM257 537q0 -152 58 -258q82 -152 254 -152q170 0 252 149q59 109 59 261q0 151 -57 258q-82 151 -254 151 q-170 0 -252 -149q-60 -109 -60 -260zM274 1196l201 287h193l200 -287h-163l-136 188l-135 -188h-160zM552 1704h225l181 -286h-136z" />
<glyph unicode="&#x1ed4;" horiz-adv-x="1572" d="M94 737q0 293 152 504q194 270 565 270q370 0 563 -268q154 -213 154 -506q0 -297 -152 -508q-192 -270 -565 -270q-371 0 -563 268q-154 215 -154 510zM299 737q0 -266 137 -432t375 -166q235 0 373.5 167t138.5 431t-135 428q-142 170 -377 170q-234 0 -373 -168 t-139 -430zM512 1618l205 291h188l205 -291h-164l-135 192l-135 -192h-164zM843 2098q0 111 72 168q62 49 150 49q77 0 137 -31q98 -51 98 -165q0 -54 -25.5 -90.5t-86 -79.5t-60.5 -138h-117q0 78 16.5 124t75 87t58.5 92q0 50 -26.5 71.5t-61.5 21.5q-55 0 -76.5 -31 t-21.5 -76z" />
<glyph unicode="&#x1ed5;" horiz-adv-x="1179" d="M73 537q0 231 119 387q135 178 377 178q241 0 378 -178q121 -158 121 -387q0 -228 -121 -385q-137 -181 -378 -181q-240 0 -375 179q-121 157 -121 387zM257 537q0 -152 58 -258q82 -152 254 -152q170 0 252 149q59 109 59 261q0 151 -57 258q-82 151 -254 151 q-170 0 -252 -149q-60 -109 -60 -260zM274 1196l201 287h193l200 -287h-163l-136 188l-135 -188h-160zM601 1671q0 110 72 168q61 49 149 49q78 0 137 -31q99 -51 99 -166q0 -53 -25.5 -90t-85.5 -80q-33 -22 -45 -43.5t-12 -68.5h-121q0 71 15.5 107t75 78t59.5 93 q0 49 -27 70.5t-62 21.5q-55 0 -76.5 -30.5t-21.5 -75.5z" />
<glyph unicode="&#x1ed6;" horiz-adv-x="1572" d="M94 737q0 293 152 504q194 270 565 270q370 0 563 -268q154 -213 154 -506q0 -297 -152 -508q-192 -270 -565 -270q-371 0 -563 268q-154 215 -154 510zM299 737q0 -266 137 -432t375 -166q235 0 373.5 167t138.5 431t-135 428q-142 170 -377 170q-234 0 -373 -168 t-139 -430zM512 1618l205 291h188l205 -291h-164l-135 192l-135 -192h-164zM543 1913q14 101 59 154q53 64 154 64q34 0 68 -7.5t71 -21.5l45 -21q25 -10 53.5 -17t40.5 -7q53 0 78 31q16 20 25 63h102q-10 -96 -64.5 -160.5t-140.5 -64.5q-45 0 -119 28l-53 17 q-98 33 -127 33q-39 0 -59.5 -21.5t-34.5 -69.5h-98z" />
<glyph unicode="&#x1ed7;" horiz-adv-x="1179" d="M73 537q0 231 119 387q135 178 377 178q241 0 378 -178q121 -158 121 -387q0 -228 -121 -385q-137 -181 -378 -181q-240 0 -375 179q-121 157 -121 387zM257 537q0 -152 58 -258q82 -152 254 -152q170 0 252 149q59 109 59 261q0 151 -57 258q-82 151 -254 151 q-170 0 -252 -149q-60 -109 -60 -260zM274 1196l201 287h193l200 -287h-163l-136 188l-135 -188h-160zM299 1522q13 98 65 159.5t148 61.5q35 0 68 -9t71 -23l46 -17q71 -29 98 -29q53 0 78 33q16 21 24 62h103q-13 -95 -68 -158.5t-137 -63.5q-25 0 -50.5 5.5t-72.5 19.5 l-53 21q-27 8 -64 18t-59 10q-39 0 -61.5 -23.5t-36.5 -66.5h-99z" />
<glyph unicode="&#x1ed8;" horiz-adv-x="1572" d="M94 737q0 293 152 504q194 270 565 270q370 0 563 -268q154 -213 154 -506q0 -297 -152 -508q-192 -270 -565 -270q-371 0 -563 268q-154 215 -154 510zM299 737q0 -266 137 -432t375 -166q235 0 373.5 167t138.5 431t-135 428q-142 170 -377 170q-234 0 -373 -168 t-139 -430zM512 1618l205 291h188l205 -291h-164l-135 192l-135 -192h-164zM721 -143h180v-205h-180v205z" />
<glyph unicode="&#x1ed9;" horiz-adv-x="1179" d="M73 537q0 231 119 387q135 178 377 178q241 0 378 -178q121 -158 121 -387q0 -228 -121 -385q-137 -181 -378 -181q-240 0 -375 179q-121 157 -121 387zM257 537q0 -152 58 -258q82 -152 254 -152q170 0 252 149q59 109 59 261q0 151 -57 258q-82 151 -254 151 q-170 0 -252 -149q-60 -109 -60 -260zM274 1196l201 287h193l200 -287h-163l-136 188l-135 -188h-160zM481 -139h180v-205h-180v205z" />
<glyph unicode="&#x1eda;" horiz-adv-x="1572" d="M94 737q0 293 152 504q194 270 565 270q102 0 189 -21.5t163 -64.5q12 2 42 25t40 33q27 24 36 53t9 66h-115v127h197v-181q0 -57 -61 -118q-46 -39 -78 -54q151 -108 229 -301q66 -160 66 -338q0 -297 -152 -508q-192 -270 -565 -270q-371 0 -563 268q-154 215 -154 510 zM299 737q0 -266 137 -432t375 -166q235 0 373.5 167t138.5 431t-135 428q-142 170 -377 170q-234 0 -373 -168t-139 -430zM660 1614l180 291h221l-266 -291h-135z" />
<glyph unicode="&#x1edb;" horiz-adv-x="1179" d="M74 537q0 231 119 387q135 178 377 178q213 0 335 -123q11 2 33.5 22.5t36.5 34.5q27 25 36 53.5t9 65.5h-115v127h197v-180q0 -58 -61 -119q-23 -20 -44.5 -39.5t-37.5 -25.5q55 -76 82.5 -176.5t27.5 -204.5q0 -228 -121 -385q-137 -181 -378 -181q-240 0 -375 179 q-121 157 -121 387zM258 537q0 -152 58 -258q82 -152 254 -152q170 0 252 149q59 109 59 261q0 151 -57 258q-82 151 -254 151q-170 0 -252 -149q-60 -109 -60 -260zM451 1217l180 286h226l-271 -286h-135z" />
<glyph unicode="&#x1edc;" horiz-adv-x="1572" d="M94 737q0 293 152 504q194 270 565 270q102 0 189 -21.5t163 -64.5q12 2 42 25t40 33q27 24 36 53t9 66h-115v127h197v-181q0 -57 -61 -118q-46 -39 -78 -54q151 -108 229 -301q66 -160 66 -338q0 -297 -152 -508q-192 -270 -565 -270q-371 0 -563 268q-154 215 -154 510 zM299 737q0 -266 137 -432t375 -166q235 0 373.5 167t138.5 431t-135 428q-142 170 -377 170q-234 0 -373 -168t-139 -430zM519 1905h221l180 -291h-135z" />
<glyph unicode="&#x1edd;" horiz-adv-x="1179" d="M74 537q0 231 119 387q135 178 377 178q213 0 335 -123q11 2 33.5 22.5t36.5 34.5q27 25 36 53.5t9 65.5h-115v127h197v-180q0 -58 -61 -119q-23 -20 -44.5 -39.5t-37.5 -25.5q55 -76 82.5 -176.5t27.5 -204.5q0 -228 -121 -385q-137 -181 -378 -181q-240 0 -375 179 q-121 157 -121 387zM251 1503h226l180 -286h-135zM258 537q0 -152 58 -258q82 -152 254 -152q170 0 252 149q59 109 59 261q0 151 -57 258q-82 151 -254 151q-170 0 -252 -149q-60 -109 -60 -260z" />
<glyph unicode="&#x1ede;" horiz-adv-x="1572" d="M94 737q0 293 152 504q194 270 565 270q102 0 189 -21.5t163 -64.5q12 2 42 25t40 33q27 24 36 53t9 66h-115v127h197v-181q0 -57 -61 -118q-46 -39 -78 -54q151 -108 229 -301q66 -160 66 -338q0 -297 -152 -508q-192 -270 -565 -270q-371 0 -563 268q-154 215 -154 510 zM299 737q0 -266 137 -432t375 -166q235 0 373.5 167t138.5 431t-135 428q-142 170 -377 170q-234 0 -373 -168t-139 -430zM582 1867q0 111 72 168q62 49 150 49q77 0 137 -31q98 -51 98 -165q0 -54 -25.5 -90.5t-86 -79.5t-60.5 -138h-117q0 78 16.5 124t75 87t58.5 92 q0 50 -26.5 71.5t-61.5 21.5q-55 0 -76.5 -31t-21.5 -76z" />
<glyph unicode="&#x1edf;" horiz-adv-x="1179" d="M74 537q0 231 119 387q135 178 377 178q213 0 335 -123q11 2 33.5 22.5t36.5 34.5q27 25 36 53.5t9 65.5h-115v127h197v-180q0 -58 -61 -119q-23 -20 -44.5 -39.5t-37.5 -25.5q55 -76 82.5 -176.5t27.5 -204.5q0 -228 -121 -385q-137 -181 -378 -181q-240 0 -375 179 q-121 157 -121 387zM258 537q0 -152 58 -258q82 -152 254 -152q170 0 252 149q59 109 59 261q0 151 -57 258q-82 151 -254 151q-170 0 -252 -149q-60 -109 -60 -260zM340 1440q0 110 72 168q61 49 150 49q77 0 137 -31q98 -51 98 -166q0 -53 -25.5 -90t-85.5 -80 q-32 -22 -44.5 -43.5t-12.5 -68.5h-121q0 71 15.5 107t75 78t59.5 93q0 49 -26.5 70.5t-61.5 21.5q-56 0 -77.5 -30.5t-21.5 -75.5z" />
<glyph unicode="&#x1ee0;" horiz-adv-x="1572" d="M94 737q0 293 152 504q194 270 565 270q102 0 189 -21.5t163 -64.5q12 2 42 25t40 33q27 24 36 53t9 66h-115v127h197v-181q0 -57 -61 -118q-46 -39 -78 -54q151 -108 229 -301q66 -160 66 -338q0 -297 -152 -508q-192 -270 -565 -270q-371 0 -563 268q-154 215 -154 510 zM299 737q0 -266 137 -432t375 -166q235 0 373.5 167t138.5 431t-135 428q-142 170 -377 170q-234 0 -373 -168t-139 -430zM463 1642q14 101 59 154q53 64 154 64q34 0 68 -7.5t71 -21.5l45 -21q25 -10 53.5 -17t40.5 -7q53 0 78 31q16 20 25 63h102q-10 -96 -64.5 -160.5 t-140.5 -64.5q-45 0 -119 28l-53 17q-98 33 -127 33q-39 0 -59.5 -21.5t-34.5 -69.5h-98z" />
<glyph unicode="&#x1ee1;" horiz-adv-x="1179" d="M74 537q0 231 119 387q135 178 377 178q213 0 335 -123q11 2 33.5 22.5t36.5 34.5q27 25 36 53.5t9 65.5h-115v127h197v-180q0 -58 -61 -119q-23 -20 -44.5 -39.5t-37.5 -25.5q55 -76 82.5 -176.5t27.5 -204.5q0 -228 -121 -385q-137 -181 -378 -181q-240 0 -375 179 q-121 157 -121 387zM218 1241q13 98 65 159.5t148 61.5q35 0 68 -9t72 -23l45 -17q71 -29 98 -29q53 0 78 33q16 21 25 62h102q-12 -95 -67.5 -158.5t-137.5 -63.5q-24 0 -50 5.5t-73 19.5l-53 21q-27 8 -63.5 18t-59.5 10q-39 0 -61.5 -23.5t-36.5 -66.5h-99zM258 537 q0 -152 58 -258q82 -152 254 -152q170 0 252 149q59 109 59 261q0 151 -57 258q-82 151 -254 151q-170 0 -252 -149q-60 -109 -60 -260z" />
<glyph unicode="&#x1ee2;" horiz-adv-x="1572" d="M94 737q0 293 152 504q194 270 565 270q102 0 189 -21.5t163 -64.5q12 2 42 25t40 33q27 24 36 53t9 66h-115v127h197v-181q0 -57 -61 -118q-46 -39 -78 -54q151 -108 229 -301q66 -160 66 -338q0 -297 -152 -508q-192 -270 -565 -270q-371 0 -563 268q-154 215 -154 510 zM299 737q0 -266 137 -432t375 -166q235 0 373.5 167t138.5 431t-135 428q-142 170 -377 170q-234 0 -373 -168t-139 -430zM721 -143h180v-205h-180v205z" />
<glyph unicode="&#x1ee3;" horiz-adv-x="1179" d="M74 537q0 231 119 387q135 178 377 178q213 0 335 -123q11 2 33.5 22.5t36.5 34.5q27 25 36 53.5t9 65.5h-115v127h197v-180q0 -58 -61 -119q-23 -20 -44.5 -39.5t-37.5 -25.5q55 -76 82.5 -176.5t27.5 -204.5q0 -228 -121 -385q-137 -181 -378 -181q-240 0 -375 179 q-121 157 -121 387zM258 537q0 -152 58 -258q82 -152 254 -152q170 0 252 149q59 109 59 261q0 151 -57 258q-82 151 -254 151q-170 0 -252 -149q-60 -109 -60 -260zM481 -139h180v-205h-180v205z" />
<glyph unicode="&#x1ee4;" horiz-adv-x="1478" d="M151 492v978h197v-925q0 -219 118 -322q97 -84 254 -84q166 0 265 80q124 103 124 322v929h197v-954q0 -242 -143 -391q-158 -166 -447 -166q-280 0 -432 162q-133 143 -133 371zM638 -143h181v-205h-181v205z" />
<glyph unicode="&#x1ee5;" d="M139 303v770h180v-713q0 -124 60 -182q51 -51 149 -51q154 0 232 119q63 96 63 237v590h180v-1073h-172v156l-4 4q-57 -97 -137 -145t-203 -48q-139 0 -231 70q-117 88 -117 266zM480 -139h181v-205h-181v205z" />
<glyph unicode="&#x1ee6;" horiz-adv-x="1478" d="M151 492v978h197v-925q0 -219 118 -322q97 -84 254 -84q166 0 265 80q124 103 124 322v929h197v-954q0 -242 -143 -391q-158 -166 -447 -166q-280 0 -432 162q-133 143 -133 371zM512 1867q0 111 72 168q61 49 149 49q78 0 138 -31q98 -51 98 -165q0 -54 -25.5 -90.5 t-86 -79.5t-60.5 -138h-117q0 78 16.5 124t75 87t58.5 92q0 50 -27 71.5t-62 21.5q-55 0 -76.5 -31t-21.5 -76z" />
<glyph unicode="&#x1ee7;" d="M139 303v770h180v-713q0 -124 60 -182q51 -51 149 -51q154 0 232 119q63 96 63 237v590h180v-1073h-172v156l-4 4q-57 -97 -137 -145t-203 -48q-139 0 -231 70q-117 88 -117 266zM340 1440q0 110 71 168q62 49 150 49q78 0 137 -31q99 -51 99 -166q0 -53 -26 -90t-85 -80 q-33 -22 -45 -43.5t-12 -68.5h-121q0 71 15 107t74.5 78t59.5 93q0 49 -26.5 70.5t-61.5 21.5q-55 0 -76.5 -30.5t-21.5 -75.5z" />
<glyph unicode="&#x1ee8;" horiz-adv-x="1478" d="M151 492v978h197v-925q0 -219 118 -322q97 -84 254 -84q166 0 265 80q124 103 124 322v929h197v-69q12 4 31.5 15t33 22.5t19.5 29t6 31.5v49h-115v127h197v-180q0 -57 -61 -119q-23 -20 -56 -37q-10 -4 -55 -24v-799q0 -242 -143 -391q-158 -166 -447 -166 q-280 0 -432 162q-133 143 -133 371zM640 1614l180 291h221l-266 -291h-135z" />
<glyph unicode="&#x1ee9;" d="M139 303v770h180v-713q0 -124 60 -182q51 -51 149 -51q154 0 232 119q63 96 63 237v590h180v-69q13 4 31 20q10 12 14 16q27 25 34 53.5t7 69.5h-114v127h196v-180q0 -57 -61 -119q-53 -47 -107 -69v-922h-172v156l-4 4q-57 -97 -137 -145t-203 -48q-139 0 -231 70 q-117 88 -117 266zM451 1217l180 286h225l-270 -286h-135z" />
<glyph unicode="&#x1eea;" horiz-adv-x="1478" d="M151 492v978h197v-925q0 -219 118 -322q97 -84 254 -84q166 0 265 80q124 103 124 322v929h197v-69q12 4 31.5 15t33 22.5t19.5 29t6 31.5v49h-115v127h197v-180q0 -57 -61 -119q-23 -20 -56 -37q-10 -4 -55 -24v-799q0 -242 -143 -391q-158 -166 -447 -166 q-280 0 -432 162q-133 143 -133 371zM439 1905h221l180 -291h-135z" />
<glyph unicode="&#x1eeb;" d="M139 303v770h180v-713q0 -124 60 -182q51 -51 149 -51q154 0 232 119q63 96 63 237v590h180v-69q13 4 31 20q10 12 14 16q27 25 34 53.5t7 69.5h-114v127h196v-180q0 -57 -61 -119q-53 -47 -107 -69v-922h-172v156l-4 4q-57 -97 -137 -145t-203 -48q-139 0 -231 70 q-117 88 -117 266zM251 1503h225l180 -286h-135z" />
<glyph unicode="&#x1eec;" horiz-adv-x="1478" d="M151 492v978h197v-925q0 -219 118 -322q97 -84 254 -84q166 0 265 80q124 103 124 322v929h197v-69q12 4 31.5 15t33 22.5t19.5 29t6 31.5v49h-115v127h197v-180q0 -57 -61 -119q-23 -20 -56 -37q-10 -4 -55 -24v-799q0 -242 -143 -391q-158 -166 -447 -166 q-280 0 -432 162q-133 143 -133 371zM512 1867q0 111 72 168q61 49 149 49q78 0 138 -31q98 -51 98 -165q0 -54 -25.5 -90.5t-86 -79.5t-60.5 -138h-117q0 78 16.5 124t75 87t58.5 92q0 50 -27 71.5t-62 21.5q-55 0 -76.5 -31t-21.5 -76z" />
<glyph unicode="&#x1eed;" d="M139 303v770h180v-713q0 -124 60 -182q51 -51 149 -51q154 0 232 119q63 96 63 237v590h180v-69q13 4 31 20q10 12 14 16q27 25 34 53.5t7 69.5h-114v127h196v-180q0 -57 -61 -119q-53 -47 -107 -69v-922h-172v156l-4 4q-57 -97 -137 -145t-203 -48q-139 0 -231 70 q-117 88 -117 266zM340 1440q0 110 71 168q62 49 150 49q78 0 137 -31q99 -51 99 -166q0 -53 -26 -90t-85 -80q-33 -22 -45 -43.5t-12 -68.5h-121q0 71 15 107t74.5 78t59.5 93q0 49 -26.5 70.5t-61.5 21.5q-55 0 -76.5 -30.5t-21.5 -75.5z" />
<glyph unicode="&#x1eee;" horiz-adv-x="1478" d="M151 492v978h197v-925q0 -219 118 -322q97 -84 254 -84q166 0 265 80q124 103 124 322v929h197v-69q12 4 31.5 15t33 22.5t19.5 29t6 31.5v49h-115v127h197v-180q0 -57 -61 -119q-23 -20 -56 -37q-10 -4 -55 -24v-799q0 -242 -143 -391q-158 -166 -447 -166 q-280 0 -432 162q-133 143 -133 371zM392 1642q15 101 60 154q53 64 153 64q35 0 69 -7.5t71 -21.5l45 -21q24 -10 53 -17t41 -7q53 0 78 31q16 20 24 63h103q-11 -96 -65 -160.5t-140 -64.5q-45 0 -119 28l-53 17q-99 33 -127 33q-39 0 -59.5 -21.5t-34.5 -69.5h-99z" />
<glyph unicode="&#x1eef;" d="M139 303v770h180v-713q0 -124 60 -182q51 -51 149 -51q154 0 232 119q63 96 63 237v590h180v-69q13 4 31 20q10 12 14 16q27 25 34 53.5t7 69.5h-114v127h196v-180q0 -57 -61 -119q-53 -47 -107 -69v-922h-172v156l-4 4q-57 -97 -137 -145t-203 -48q-139 0 -231 70 q-117 88 -117 266zM258 1241q12 98 64.5 159.5t148.5 61.5q35 0 67.5 -9t71.5 -23l45 -17q72 -29 99 -29q53 0 77 33q17 21 25 62h102q-12 -95 -67.5 -158.5t-136.5 -63.5q-25 0 -50.5 5.5t-72.5 19.5l-54 21q-26 8 -63 18t-59 10q-39 0 -61.5 -23.5t-37.5 -66.5h-98z" />
<glyph unicode="&#x1ef0;" horiz-adv-x="1478" d="M151 492v978h197v-925q0 -219 118 -322q97 -84 254 -84q166 0 265 80q124 103 124 322v929h197v-69q12 4 31.5 15t33 22.5t19.5 29t6 31.5v49h-115v127h197v-180q0 -57 -61 -119q-23 -20 -56 -37q-10 -4 -55 -24v-799q0 -242 -143 -391q-158 -166 -447 -166 q-280 0 -432 162q-133 143 -133 371zM638 -143h181v-205h-181v205z" />
<glyph unicode="&#x1ef1;" d="M139 303v770h180v-713q0 -124 60 -182q51 -51 149 -51q154 0 232 119q63 96 63 237v590h180v-69q13 4 31 20q10 12 14 16q27 25 34 53.5t7 69.5h-114v127h196v-180q0 -57 -61 -119q-53 -47 -107 -69v-922h-172v156l-4 4q-57 -97 -137 -145t-203 -48q-139 0 -231 70 q-117 88 -117 266zM480 -139h181v-205h-181v205z" />
<glyph unicode="&#x1ef2;" horiz-adv-x="1454" d="M28 1470h233l422 -704l422 704h234l-557 -876v-594h-197v594zM377 1905h222l180 -291h-135z" />
<glyph unicode="&#x1ef3;" horiz-adv-x="1085" d="M24 1073h205l282 -872l291 872h201q-94 -264 -187.5 -522t-197.5 -531q-129 -325 -189.5 -391.5t-232.5 -66.5q-16 0 -27 2q-30 10 -47 14v164q17 -6 46.5 -13.5t60.5 -7.5q67 0 96 39t96 211zM250 1503h226l180 -286h-135z" />
<glyph unicode="&#x1ef4;" horiz-adv-x="1454" d="M28 1470h233l422 -704l422 704h234l-557 -876v-594h-197v594zM601 -139h181v-205h-181v205z" />
<glyph unicode="&#x1ef5;" horiz-adv-x="1085" d="M24 1073h205l282 -872l291 872h201q-94 -264 -187.5 -522t-197.5 -531q-129 -325 -189.5 -391.5t-232.5 -66.5q-16 0 -27 2q-30 10 -47 14v164q17 -6 46.5 -13.5t60.5 -7.5q67 0 96 39t96 211zM720 -119h181v-205h-181v205z" />
<glyph unicode="&#x1ef6;" horiz-adv-x="1454" d="M28 1470h233l422 -704l422 704h234l-557 -876v-594h-197v594zM472 1816q0 111 72 168q61 49 149 49q78 0 137 -31q99 -51 99 -165q0 -54 -26 -90.5t-86 -79.5t-60 -138h-117q0 78 16.5 124t74.5 87t58 92q0 50 -26.5 71.5t-61.5 21.5q-55 0 -76.5 -31t-21.5 -76z" />
<glyph unicode="&#x1ef7;" horiz-adv-x="1085" d="M24 1073h205l282 -872l291 872h201q-94 -264 -187.5 -522t-197.5 -531q-129 -325 -189.5 -391.5t-232.5 -66.5q-16 0 -27 2q-30 10 -47 14v164q17 -6 46.5 -13.5t60.5 -7.5q67 0 96 39t96 211zM308 1440q0 110 72 168q62 49 150 49q78 0 137 -31q98 -51 98 -166 q0 -53 -25.5 -90t-84.5 -80q-33 -22 -45.5 -43.5t-12.5 -68.5h-121q0 71 15.5 107t75 78t59.5 93q0 49 -26.5 70.5t-61.5 21.5q-55 0 -76.5 -30.5t-21.5 -75.5z" />
<glyph unicode="&#x1ef8;" horiz-adv-x="1454" d="M28 1470h233l422 -704l422 704h234l-557 -876v-594h-197v594zM392 1642q15 101 60 154q53 64 153 64q35 0 69 -7.5t70 -21.5l45 -21q25 -10 53.5 -17t41.5 -7q53 0 78 31q16 20 24 63h102q-10 -96 -64 -160.5t-140 -64.5q-45 0 -119 28l-53 17q-99 33 -127 33 q-39 0 -59.5 -21.5t-35.5 -69.5h-98z" />
<glyph unicode="&#x1ef9;" horiz-adv-x="1085" d="M24 1073h205l282 -872l291 872h201q-94 -264 -187.5 -522t-197.5 -531q-129 -325 -189.5 -391.5t-232.5 -66.5q-16 0 -27 2q-30 10 -47 14v164q17 -6 46.5 -13.5t60.5 -7.5q67 0 96 39t96 211zM218 1241q12 98 64 159.5t149 61.5q34 0 67 -9t72 -23l45 -17q72 -29 98 -29 q54 0 78 33q16 21 25 62h102q-12 -95 -67.5 -158.5t-137.5 -63.5q-24 0 -50 5.5t-73 19.5l-53 21q-26 8 -63 18t-60 10q-39 0 -61.5 -23.5t-36.5 -66.5h-98z" />
<glyph unicode="&#x2000;" horiz-adv-x="1167" />
<glyph unicode="&#x2001;" horiz-adv-x="2335" />
<glyph unicode="&#x2002;" horiz-adv-x="1167" />
<glyph unicode="&#x2003;" horiz-adv-x="2335" />
<glyph unicode="&#x2004;" horiz-adv-x="778" />
<glyph unicode="&#x2005;" horiz-adv-x="583" />
<glyph unicode="&#x2006;" horiz-adv-x="389" />
<glyph unicode="&#x2007;" horiz-adv-x="389" />
<glyph unicode="&#x2008;" horiz-adv-x="291" />
<glyph unicode="&#x2009;" horiz-adv-x="467" />
<glyph unicode="&#x200a;" horiz-adv-x="129" />
<glyph unicode="&#x2010;" horiz-adv-x="737" d="M90 475v184h504v-184h-504z" />
<glyph unicode="&#x2011;" horiz-adv-x="737" d="M90 475v184h504v-184h-504z" />
<glyph unicode="&#x2012;" horiz-adv-x="737" d="M90 475v184h504v-184h-504z" />
<glyph unicode="&#x2013;" horiz-adv-x="1257" d="M90 475v184h1024v-184h-1024z" />
<glyph unicode="&#x2014;" horiz-adv-x="2281" d="M90 475v184h2048v-184h-2048z" />
<glyph unicode="&#x2018;" horiz-adv-x="487" d="M135 963v200q0 131 46 213t167 111v-98q-70 -11 -94 -84q-17 -48 -17 -125h111v-217h-213z" />
<glyph unicode="&#x2019;" horiz-adv-x="487" d="M110 950v94q68 11 92 84q14 46 14 125h-106v217h213v-200q0 -127 -45 -205q-51 -88 -168 -115z" />
<glyph unicode="&#x201c;" horiz-adv-x="737" d="M77 963v200q0 129 48 212t165 112v-98q-68 -11 -92 -84q-15 -45 -15 -125h107v-217h-213zM417 963v200q0 131 46 213t167 111v-98q-70 -11 -94 -84q-17 -48 -17 -125h111v-217h-213z" />
<glyph unicode="&#x201d;" horiz-adv-x="737" d="M53 950v94q70 11 94 84q17 48 17 125h-111v217h213v-200q0 -129 -43 -205q-51 -88 -170 -115zM393 950v94q68 11 92 84q14 46 14 125h-106v217h213v-200q0 -127 -45 -205q-51 -88 -168 -115z" />
<glyph unicode="&#x2026;" horiz-adv-x="1245" d="M184 0v209h188v-209h-188zM516 0v209h188v-209h-188zM848 0v209h188v-209h-188z" />
<glyph unicode="&#x202f;" horiz-adv-x="467" />
<glyph unicode="&#x205f;" horiz-adv-x="583" />
<glyph unicode="&#x25fc;" horiz-adv-x="1075" d="M0 0v1075h1075v-1075h-1075z" />
</font>
</defs>
</svg>
